Сегодня идет свободное скачивание без начисления Download

Игра престолов / Game of Thrones / Сезон: 6 / Серии: 1-3 из 10 (Дэниэл Сакхайм, Джек Бендер, Мигель Сапочник) [2016, фэнтези, драма, приключения, HDTV 1080i] DUB (Amedia - Kravec) + Original + Sub (Rus, Eng)

Ответить на тему
 
Автор
Сообщение

Omen ®

Стаж: 5 лет 9 месяцев

Сообщений: 184433

Торрент-статистика

Пост 15-Май-2016 06:00

[Цитировать]

--Игра престолов / Game of Thrones-- Год выпуска: 2016
Страна: США
Жанр: фэнтези, драма, приключения, экранизация
Продолжительность: ~ 00:55:00
Перевод: Профессиональный (дублированный) Amedia - Kravec-Режиссёры:
Дэниэл Сакхайм, Джек Бендер, Мигель Сапочник, Джереми Подесва, Марк Майлод-В ролях:
Лена Хиди, Питер Динклэйдж, Мишель Фэйрли, Эмилия Кларк, Кит Харингтон, Николай Костер-Валдау, Иэн Глен, Эйден Гиллен, Элфи Оуэн-Аллен, Мэйси Уильямс, Софи Тернер, Сибель Кекилли, Джеймс Космо, Стивен Диллэйн, Гетин Энтони, Гвендолин Кристи, Натали Дормер-Описание:
После шокирующих событий в финале пятого сезона, включая судьбу Джона Сноу, павшего от рук мятежников Черного замка, возможную гибель Дейенерис в ямах Миерина и прилюдное унижение Серсеи на улицах Королевской Гавани, оставшиеся в живых на просторах Вестероса и Эссоса собирают силы, чтобы устремиться вперед с прежней непреклонностью, не зная, что ждет каждого из них. Появятся новые герои с намерением изменить равновесие сил на востоке, западе, севере и юге.-[url=tracker.php?f=1449,189,2181,2366,286,287,315,864&nm=game%20of%20thrones]Предыдущие и альтернативные раздачи[/url] / Семпл-Качество: HDTV 1080i
Формат: MKV
Видео: 1920x1080 (16:9), MPEG-2, 10,4 Mbps, 29,97 fps
Аудио 1: AC3, 48.0 KHz, 6 ch, 640.00 kbps RUS
Аудио 2: AC3, 48.0 KHz, 6 ch, 384.00 kbps ENG
Субтитры: русские форсированные (стилизованные by messafan, простые), русские полные (Amedia), русские отдельно (7kingdoms (1-3) и Opel & Volverine73 (1-2)), английские-Работа со звуком и субтитрами - messafan.-

MediaInfo

ОбщееУникальный идентификатор : 213406308762304189301289120848485593913 (0xA08C8F5E8FCB5629B8904DAD2BD8B339)Полное имя : D:\Загрузки\torrent\Game.of.Thrones.S06.HDTV.1080i\Game.of.Thrones.S06E01.HDTV.1080i.mkvФормат : MatroskaВерсия формата : Version 4 / Version 2Размер файла : 4,44 ГбайтПродолжительность : 54 м.Режим общего битрейта : ПеременныйОбщий поток : 11,7 Мбит/секНазвание фильма : Game of Thrones 06x01 (The Red Woman)Дата кодирования : UTC 2016-04-26 14:12:39Программа кодирования : mkvmerge v6.7.0 ('Back to the Ground') 64bit built on Jan 8 2014 15:10:52Библиотека кодирования : libebml v1.3.0 + libmatroska v1.4.1
ВидеоИдентификатор : 1Формат : MPEG VideoВерсия формата : Version 2Профиль формата : Main@HighПараметр BVOP формата : ДаПараметр матрицы формата : ВыборочнаяПараметр GOP формата : VariableИдентификатор кодека : V_MPEG2Идентификатор кодека/Информация : MPEG 1 or 2 VideoПродолжительность : 54 м.Вид битрейта : ПеременныйБитрейт : 10,4 Мбит/секМаксимальный битрейт : 64,0 Мбит/секШирина : 1920 пикселейВысота : 1080 пикселейСоотношение сторон : 16:9Режим частоты кадров : ПостоянныйЧастота кадров : 29,970 (30000/1001) кадров/секЦветовое пространство : YUVСубдискретизация насыщенности : 4:2:0Битовая глубина : 8 битМетод сжатия : С потерямиБит/(Пиксели*Кадры) : 0.168Временной код первого кадра : 00:00:00;00Оригинал временного кода : Group of pictures headerРазмер потока : 3,96 Гбайт (89%)Язык : EnglishDefault : ДаForced : Нет
Аудио #1Идентификатор : 2Формат : AC-3Формат/Информация : Audio Coding 3Расширение режима : CM (complete main)Параметр Endianness формата : BigИдентификатор кодека : A_AC3Продолжительность : 54 м.Вид битрейта : ПостоянныйБитрейт : 640 Кбит/секКаналы : 6 каналовРасположение каналов : Front: L C R, Side: L R, LFEЧастота : 48,0 КГцМетод сжатия : С потерямиРазмер потока : 249 Мбайт (5%)Язык : RussianDefault : ДаForced : Нет
Аудио #2Идентификатор : 3Формат : AC-3Формат/Информация : Audio Coding 3Расширение режима : CM (complete main)Параметр Endianness формата : BigИдентификатор кодека : A_AC3Продолжительность : 54 м.Вид битрейта : ПостоянныйБитрейт : 384 Кбит/секКаналы : 6 каналаРасположение каналов : Front: L C R, Side: L R, LFEЧастота : 48,0 КГцМетод сжатия : С потерямиРазмер потока : 150 Мбайт (3%)Язык : EnglishDefault : НетForced : Нет
Текст #1Идентификатор : 4Формат : ASSИдентификатор кодека : S_TEXT/ASSИдентификатор кодека/Информация : Advanced Sub Station AlphaМетод сжатия : Без потерьЗаголовок : Forced by messafanЯзык : RussianDefault : ДаForced : Да
Текст #2Идентификатор : 5Формат : UTF-8Идентификатор кодека : S_TEXT/UTF8Идентификатор кодека/Информация : UTF-8 Plain TextЗаголовок : Forced simpleЯзык : RussianDefault : НетForced : Нет
Текст #3Идентификатор : 6Формат : UTF-8Идентификатор кодека : S_TEXT/UTF8Идентификатор кодека/Информация : UTF-8 Plain TextЗаголовок : Rus full [Amedia]Язык : RussianDefault : НетForced : Нет
Текст #4Идентификатор : 7Формат : UTF-8Идентификатор кодека : S_TEXT/UTF8Идентификатор кодека/Информация : UTF-8 Plain TextЗаголовок : Eng subЯзык : EnglishDefault : НетForced : Нет

Скриншоты

Раздача ведется путем добавления новых серий

Когда раздача ведётся путём добавления новых серий, при каждом добавлении создаётся новый торрент. Чтобы начать докачку новой серии, пользователям необходимо сделать следующее:
1. Остановить скачивание.
2. Удалить старый торрент у себя из клиента (старые серии удалять не надо).
3. Скачать новый торрент и запустить его у себя в клиенте вместо старого, при этом указать клиенту путь в старую папку, куда и должно происходить скачивание новых серий.
Ваш клиент при этом должен произвести хеширование (проверку) старой папки (если не производит сам - помогите ему сделать это), и будет докачивать только те серии, которых у вас ещё нет. Старые серии при этом не удаляются, а продолжают раздаваться.
Eсли вы уже удалили старые серии, то можно предотвратить их повторную закачку, отжав галочку в соответствующих местах при запуске нового торрента. По возможности, желательно не удаляйте старые серии как можно дольше, чтобы релизёр мог сконцентрироваться на новых.
Вне форума [Профиль] [ЛС]
Показать сообщения:    
Ответить на тему

Текущее время: Сегодня 17:29

Часовой пояс: GMT + 3



Вы не можете начинать темы
Вы не можете отвечать на сообщения
Вы не можете редактировать свои сообщения
Вы не можете удалять свои сообщения
Вы не можете голосовать в опросах
Вы не можете прикреплять файлы к сообщениям
Вы не можете скачивать файлы