Сегодня идет свободное скачивание без начисления Download

Пять / Пятеро / The Five / Сезон: 1 / Серии: 1-8 из 10 (Марк Тондерай) [2016 г., Детектив, драма, триллер, HDTVRip] MVO (Jaskier) + Original

Ответить на тему
 
Автор
Сообщение

Omen ®

Стаж: 5 лет 11 месяцев

Сообщений: 184329

Торрент-статистика

Пост 15-Май-2016 00:33

[Цитировать]

Пять | The FiveCastle- Год выпуска: 2016
Страна: Великобритания
Жанр: детектив, драма, триллер
Продолжительность: ~ 00:43:00-Перевод: Профессиональный (многоголосый закадровый) | Jaskier-Режиссёр: Марк Тондерай-В ролях: Том Каллен, Ханна Артертон, Том Бритни, Ли Инглби, Джеральдин Джеймс, Мэган Брэдли, Фридом Доран, Эйдан Дакворт, Джонатан Кэрриган и др.-Описание: Когда Марку, Прю, Дэнни и Слэйду было 12, они пошли на прогулку в парк. Но с ними пошёл надоедливый пятилетний брат Марка Джесси. Дети нагрубили ему и велели вернуться домой. Джесси убежал, но домой так и не вернулся. Спустя 20 лет Дэнни, ставший детективом, узнаёт шокирующую новость: на месте одного убийства нашли ДНК Джесси. Значит, он ещё жив и его можно отыскать. "Пять" — новая история от Харлана Кобена, написанная специально для телевидения. Это захватывающий современный триллер с невероятными сюжетными твистами, который еженедельно будет удивлять свою аудиторию.- -| [url=tracker.php?f=189,2366&nm=The+Five+2016]Ссылка на предыдущие и альтернативные раздачи[/url]-Качество: HDTVRip
Формат: AVI
Видео: XviD, 720x304 (16:9), 25 fps, ~ 1500 kbps
Аудио: MP3, 48 kHz, 2 ch, 128 kbps - Rus
Аудио: MP3, 48 kHz, 2 ch, 128 kbps - Eng
Субтитры: отсутствуют-

Релиз

Перевод и озвучивание Студия Jaskier

MediaInfo

Код:
Общее
Полное имя                               : D:\загрузки\The Five (Season 01) Jaskier\The.Five.UK.s01e01.HDTVRip.Jaskier.avi
Формат                                   : AVI
Формат/Информация                        : Audio Video Interleave
Размер файла                             : 551 Мбайт
Продолжительность                        : 44 м.
Общий поток                              : 1735 Кбит/сек
Программа кодирования                    : VirtualDubMod 1.5.10.3 | www.virtualdub-fr.org || (build 2550/release)
Библиотека кодирования                   : VirtualDubMod build 2550/release
Видео
Идентификатор                            : 0
Формат                                   : MPEG-4 Visual
Профиль формата                          : Advanced Simple@L5
Параметр BVOP формата                    : 1
Параметр QPel формата                    : Нет
Параметр GMC формата                     : Без точки перехода
Параметр матрицы формата                 : Default (MPEG)
Идентификатор кодека                     : XVID
Идентификатор кодека/Подсказка           : XviD
Продолжительность                        : 44 м.
Битрейт                                  : 1465 Кбит/сек
Ширина                                   : 720 пикселей
Высота                                   : 304 пикселя
Соотношение сторон                       : 2,35:1
Частота кадров                           : 25,000 кадров/сек
Цветовое пространство                    : YUV
Субдискретизация насыщенности            : 4:2:0
Битовая глубина                          : 8 бит
Тип развёртки                            : Прогрессивная
Метод сжатия                             : С потерями
Бит/(Пиксели*Кадры)                      : 0.268
Размер потока                            : 465 Мбайт (84%)
Библиотека кодирования                   : XviD 73
Аудио #1
Идентификатор                            : 1
Формат                                   : MPEG Audio
Версия формата                           : Version 1
Профиль формата                          : Layer 3
Идентификатор кодека                     : 55
Идентификатор кодека/Подсказка           : MP3
Продолжительность                        : 44 м.
Вид битрейта                             : Постоянный
Битрейт                                  : 128 Кбит/сек
Каналы                                   : 2 канала
Частота                                  : 48,0 КГц
Метод сжатия                             : С потерями
Размер потока                            : 40,6 Мбайт (7%)
Выравнивание                             : Соединение по промежуткам
Продолжительность промежутка             : 40  мс. (1,00 видеокадр)
Время предзагрузки промежутка            : 504  мс.
Библиотека кодирования                   : LAME3.99r
Настройки программы                      : -m s -V 4 -q 2 -lowpass 17 -b 128
Аудио #2
Идентификатор                            : 2
Формат                                   : MPEG Audio
Версия формата                           : Version 1
Профиль формата                          : Layer 3
Режим                                    : Joint stereo
Расширение режима                        : MS Stereo
Идентификатор кодека                     : 55
Идентификатор кодека/Подсказка           : MP3
Продолжительность                        : 44 м.
Вид битрейта                             : Постоянный
Битрейт                                  : 128 Кбит/сек
Каналы                                   : 2 канала
Частота                                  : 48,0 КГц
Метод сжатия                             : С потерями
Размер потока                            : 40,6 Мбайт (7%)
Выравнивание                             : Соединение по промежуткам
Продолжительность промежутка             : 40  мс. (1,00 видеокадр)
Время предзагрузки промежутка            : 504  мс.
[/spoiler]

Скриншоты

Раздача ведется путем добавления новых серий

Когда раздача ведётся путём добавления новых серий, при каждом добавлении создётся новый торрент. Чтобы начать докачку новой серии, пользователям необходимо сделать следующее:
(1) остановить скачивание,
(2) удалить старый торрент у себя из клиента (старые серии удалять не надо),
(3) скачать новый торрент и запустить его у себя в клиенте вместо старого, при этом указать клиенту путь в старую папку, куда и должно происходить скачивание новых серий.
Ваш клиент при этом должен произвести хеширование (проверку) старой папки (если не производит сам - помогите ему сделать это), и будет докачивать только те серии, которых у вас ещё нет. Старые серии при этом не удаляются, а продолжают раздаваться!
Eсли вы уже удалили старые серии, то предотвратить повторную закачку старых серий можно, отжав галочку в соответсвующих местах при запуске нового торрента. По возможности, желательно не удалять старые серии как можно дольше, чтобы релизёр не столько продолжал раздавать старые серии, а смог сконцентрироваться на новых.
-
Вне форума [Профиль] [ЛС]
Показать сообщения:    
Ответить на тему

Текущее время: Сегодня 14:14

Часовой пояс: GMT + 3



Вы не можете начинать темы
Вы не можете отвечать на сообщения
Вы не можете редактировать свои сообщения
Вы не можете удалять свои сообщения
Вы не можете голосовать в опросах
Вы не можете прикреплять файлы к сообщениям
Вы не можете скачивать файлы