Сегодня идет свободное скачивание без начисления Download

Война и мир / War and Peace / Сезон: 1 / Серии: 1-6 из 6 (Том Харпер / Tom Harper) [2016, драма, мелодрама, военный, история, BDRip] Dub (Первый канал) + Original

Ответить на тему
 
Автор
Сообщение

Omen ®

Стаж: 5 лет 11 месяцев

Сообщений: 184329

Торрент-статистика

Пост 14-Май-2016 21:00

[Цитировать]

Война и мир / War and Peace
Мини-сериал
Год выпуска: 2016
Страна: США, Великобритания
Жанр: драма, мелодрама, военный, история
Продолжительность: ~01:00:00 х 6
Перевод: Профессиональный (дублированный) | Первый канал
Режиссёр: Том Харпер / Tom Harper
В ролях: Пол Дано, Джеймс Нортон, Лили Джеймс, Эдриен Эдмондсон, Эшлин Лофтус, Грета Скакки, Джек Лауден, Таппенс Мидлтон, Анейрин Барнард, Джесси Бакли и др.
Описание: Действие сериала развивается в России XIX века, охватывая период с 1805 по 1812 годы. В основу сюжета положен роман Льва Толстого «Война и мир», основное внимание сфокусировано на судьбах Пьера Безухова, Андрея Болконского и Наташи Ростовой.-Сэмпл
[url=tracker.php?f=189,2366&nm=War+and+Peace+2016]Другие раздачи сериала[/url]-Качество: BDRip
Формат: AVI
Видео: XviD, 720x400 (16:9), 25 fps, ~ 2000 kbps
Аудио Rus: AC3, 48.0 kHz, 2ch, 192 kbps Дубляж Первого канала
Аудио Eng: AC3, 48.0 kHz, 6ch, 384 kbps Оригинал
Субтитры: русские форсированные-

MediaInfo

GeneralComplete name : s01e01.aviFormat : AVIFormat/Info : Audio Video InterleaveFile size : 1.07 GiBDuration : 59mn 23sOverall bit rate : 2 590 KbpsWriting application : VirtualDubMod 1.5.10.3 (build 2550/release)Writing library : VirtualDubMod build 2550/release
VideoID : 0Format : MPEG-4 VisualFormat profile : Advanced Simple@L5Format settings, BVOP : 1Format settings, QPel : NoFormat settings, GMC : No warppointsFormat settings, Matrix : Default (MPEG)Codec ID : XVIDCodec ID/Hint : XviDDuration : 59mn 23sBit rate : 2 000 KbpsWidth : 720 pixelsHeight : 400 pixelsDisplay aspect ratio : 16:9Frame rate : 25.000 fpsColor space : YUVChroma subsampling : 4:2:0Bit depth : 8 bitsScan type : ProgressiveCompression mode : LossyBits/(Pixel*Frame) : 0.278Stream size : 850 MiB (77%)Writing library : XviD 67
Audio #1ID : 1Format : AC-3Format/Info : Audio Coding 3Mode extension : CM (complete main)Format settings, Endianness : BigCodec ID : 2000Duration : 59mn 23sBit rate mode : ConstantBit rate : 192 KbpsChannel(s) : 2 channelsChannel positions : Front: L RSampling rate : 48.0 KHzFrame rate : 31.250 fps (1536 spf)Compression mode : LossyStream size : 81.6 MiB (7%)Alignment : Split accross interleavesInterleave, duration : 40 ms (1.00 video frame)Interleave, preload duration : 500 ms
Audio #2ID : 2Format : AC-3Format/Info : Audio Coding 3Mode extension : CM (complete main)Format settings, Endianness : BigCodec ID : 2000Duration : 59mn 23sBit rate mode : ConstantBit rate : 384 KbpsChannel(s) : 6 channelsChannel positions : Front: L C R, Side: L R, LFESampling rate : 48.0 KHzFrame rate : 31.250 fps (1536 spf)Compression mode : LossyStream size : 163 MiB (15%)Alignment : Split accross interleavesInterleave, duration : 40 ms (1.00 video frame)Interleave, preload duration : 500 ms

Скриншоты

Вне форума [Профиль] [ЛС]
Похожие темы
Форум Тема Автор Торрент Отв. Посл. сообщение
./templates/default/images/folder_dl.gif Антология зарубежного кино Двойная рокировка: Трилогия / Infernal Affairs / Mou gaan dou: Trilogy (1999-2003) BDRip [H.264/720p-LQ] [Hi10P] Omen
1 | 0

0 | 2052

15

2014-01-05 23:12
Omen Последнее
./templates/default/images/folder_dl.gif Новинки (BD|HDTV|DVD) Планета обезьян: Война / War for the Planet of the Apes (Мэтт Ривз) [2017 г., фантастика, боевик, триллер, BDRip 1080p] DUB | Лицензия Theseus
1 | 0

0 | 7127

11

2017-10-17 17:18
Theseus Последнее
./templates/default/images/folder_dl.gif Новинки (BD|HDTV|DVD) Мстители: Война бесконечности / Avengers: Infinity War (Энтони Руссо, Джо Руссо) [2018 г., фантастика, фэнтези, боевик, приключения, WEB-DLRip 1080p] DUB | Чистый звук Theseus
1 | 0

0 | 432

9

2018-08-01 14:20
Theseus Последнее
./templates/default/images/folder_dl.gif Новинки (HD|DVD|BD|WEB|TV|SAT|PDTV|-Rip) Мстители: Война бесконечности / Avengers: Infinity War (Энтони Руссо, Джо Руссо) [2018 г., фантастика, фэнтези, боевик, приключения, BDRip-AVC] DUB | iTunes Theseus
1 | 0

0 | 310

6

2018-08-03 14:11
Theseus Последнее
Показать сообщения:    
Ответить на тему

Текущее время: Сегодня 15:03

Часовой пояс: GMT + 3



Вы не можете начинать темы
Вы не можете отвечать на сообщения
Вы не можете редактировать свои сообщения
Вы не можете удалять свои сообщения
Вы не можете голосовать в опросах
Вы не можете прикреплять файлы к сообщениям
Вы не можете скачивать файлы