Сегодня идет свободное скачивание без начисления Download

Плебеи / Plebs / Сезон: 3 / Серии: 4 серия (Сэм Лейфер) [2016, Комедия, HDTVRip] Original + Rus Subs

Ответить на тему
 
Автор
Сообщение

Omen ®

Стаж: 5 лет 7 месяцев

Сообщений: 185427

Торрент-статистика

Пост 14-Май-2016 12:03

[Цитировать]

Плебеи / Plebs
Год выпуска: 2016
Страна: Великобритания
Жанр: Комедия
Продолжительность: 00:22:42
Перевод: Субтитры
Перевод субтитров: Анна Пензова, Вероника Никитина, Руслан Раскопин, _SnK_
Режиссёр: Сэм Лейфер
В ролях: Том Розенталь, Джоэль Фра, й Райан Сэмпсон, Софи Колкухоун, Лидия Роуз Бьюли, Карл Теобалд, Том Басден, Дун Макичен, Эдриан Скарборо, Джевон Прин
Описание: Место действия — пригород Древнего Рима, в котором обитают два закадычных друга Маркус и Стилакс и их ленивый раб Грумио, постоянно страдающий от проблем в отношениях. Маркус и Стилакс всеми силами пытаются подняться вверх по социальной лестнице, при этом не забывая как следует веселиться, не смотря на козни беспощадного босса.

Ссылка на предыдущие и альтернативные раздачи: https://w.rutracker.space/https://w.rutracker.space/https://w.rutracker.space/htt...ker.php?nm=plebs
Качество: HDTVRip
Формат: AVI
Видео: 720x404 (1.78:1), 25 fps, XviD build 63 ~1974 kbps avg, 0.27 bit/pixel
Аудио: 44.100 kHz, MPEG Layer 3, 2 ch, ~128.00 kbps avg
Субтитры: Русские(Вшитые)

MediaInfo

Общее
Полное имя : D:\Plebs S03\Plebs.S03E04.The Cupid_xvid.avi
Формат : AVI
Формат/Информация : Audio Video Interleave
Размер файла : 343 Мбайт
Продолжительность : 22 м.
Общий поток : 2115 Кбит/сек
Программа кодирования : Lavf55.19.104
Видео
Идентификатор : 0
Формат : xvid
Идентификатор кодека : xvid
Продолжительность : 22 м.
Битрейт : 1975 Кбит/сек
Ширина : 720 пикселей
Высота : 404 пикселя
Соотношение сторон : 16:9
Частота кадров : 25,000 кадров/сек
Бит/(Пиксели*Кадры) : 0.272
Размер потока : 321 Мбайт (93%)
Аудио
Идентификатор : 1
Формат : MPEG Audio
Версия формата : Version 1
Профиль формата : Layer 3
Режим : Joint stereo
Расширение режима : MS Stereo
Идентификатор кодека : 55
Идентификатор кодека/Подсказка : MP3
Продолжительность : 22 м.
Вид битрейта : Постоянный
Битрейт : 128 Кбит/сек
Каналы : 2 канала
Частота : 44,1 КГц
Метод сжатия : С потерями
Размер потока : 20,7 Мбайт (6%)
Выравнивание : Соединение по промежуткам
Продолжительность промежутка : 26 мс. (0,65 видеокадр)
Время предзагрузки промежутка : 26 мс.

Скриншоты




Вне форума [Профиль] [ЛС]
Показать сообщения:    
Ответить на тему

Текущее время: Сегодня 16:22

Часовой пояс: GMT + 3



Вы не можете начинать темы
Вы не можете отвечать на сообщения
Вы не можете редактировать свои сообщения
Вы не можете удалять свои сообщения
Вы не можете голосовать в опросах
Вы не можете прикреплять файлы к сообщениям
Вы не можете скачивать файлы