Сегодня идет свободное скачивание без начисления Download

Такси / Taxi / Сезон: 4 / Серии: 1, 3, 5-10, 12-24 (24) (Джеймс Берроуз / James Burrows) [1981, комедия, DVDRip] DVO (CBS Drama) + Original + Sub (Eng)

Ответить на тему
 
Автор
Сообщение

Omen ®

Стаж: 5 лет 6 месяцев

Сообщений: 186946

Торрент-статистика

Пост 14-Май-2016 09:00

[Цитировать]

Такси / Taxi -Год выпуска: 1981
Страна: США
Студия: Paramount Pictures
Жанр: комедия
Продолжительность: ~25 минут (серия)
Перевод: Профессиональный (двухголосый закадровый) CBS Drama-Режиссёр: Джеймс Берроуз / James Burrows-В ролях: Джадд Хёрш, Дэнни ДеВито, Мэрилу Хеннер, Тони Данза, Дж. Алан Томас, Кристофер Ллойд, Энди Кауфман, Джефф Конэвей и другие.-Описание: Сотрудники такси в Нью-Йорке ходят на свою работу, мечтая о более высоких достижениях.-РЕЛИЗ ОТ: V.SERIJ2013-Спасибо #Antisnl#, Beer kolesik Drinkers за запись звука и v.serij2013 (т.е., мне) за сведение.-Качество: DVDRip |PLAiD|
Формат: MKV
Видео кодек: H.264
Аудио кодек: AC3
Видео: H.264, 716x480 (4:3), 23.976 fps, ~2000 kbps, 0.243 bit/pixel
Аудио:
  • русская |CBS Drama|: AC3, 48 kHz, 2 ch, 192 kbps
  • английская |Оригинал|: AC3, 48 kHz, 2 ch, 192 kbps
Субтитры: английские-Сэмпл- -

Список серий

01. Jim the Psychic
03. Mr. Personalities
05. Louie's Fling
06. Like Father Like Son
07. Louie's Mom Remarries
08. Fledgling
09. Of Mice and Tony
10. Louie Goes Too Far
12. Bobby Doesn't Live Here Anymore
13. Nina Loves Alex
14. Tony's Lady
15. Simka Returns
16. Jim and the Kid
17. Take My Ex-Wife Please
18. The Unkindest Cut
19. Tony's Comeback
20. Elegant Iggy
21. The Wedding of Latka and Simka
22. Cooking for Two
23. The Road Not Taken (Part 1)
24. The Road Not Taken (Part 2)

Media Info

Код:
General
Unique ID                      : 251541552852035625421360812463330008817 (0xBD3D2411563E9D3B8003BBAA02659EF1)
Complete name                  : E:\Video\SD\Taxi Season 4 (DVDRip l AVC)\01. Jim the Psychic.mkv
Format                         : Matroska
Format version                 : Version 4 / Version 2
File size                      : 413 MiB
Duration                       : 24mn 9s
Overall bit rate               : 2 387 Kbps
Encoded date                   : UTC 2016-05-03 00:41:05
Writing application            : mkvmerge v8.8.0 ('Wind at my back') 32bit
Writing library                : libebml v1.3.3 + libmatroska v1.4.4
DURATION                       : 00:24:09.568000000
NUMBER_OF_FRAMES               : 45299
NUMBER_OF_BYTES                : 34789632
_STATISTICS_WRITING_APP        : mkvmerge v8.8.0 ('Wind at my back') 32bit
_STATISTICS_WRITING_DATE_UTC   : 2016-05-03 00:41:05
_STATISTICS_TAGS               : BPS DURATION NUMBER_OF_FRAMES NUMBER_OF_BYTES
Video
ID                             : 1
Format                         : AVC
Format/Info                    : Advanced Video Codec
Format profile                 : High@L3.1
Format settings, CABAC         : Yes
Format settings, ReFrames      : 13 frames
Codec ID                       : V_MPEG4/ISO/AVC
Duration                       : 24mn 9s
Bit rate                       : 2 000 Kbps
Width                          : 716 pixels
Height                         : 480 pixels
Display aspect ratio           : 4:3
Frame rate mode                : Constant
Frame rate                     : 23.976 fps
Color space                    : YUV
Chroma subsampling             : 4:2:0
Bit depth                      : 8 bits
Scan type                      : Progressive
Bits/(Pixel*Frame)             : 0.243
Stream size                    : 338 MiB (82%)
Writing library                : x264 core 140 r2377 1ca7bb9
Encoding settings              : cabac=1 / ref=13 / deblock=1:-3:-3 / analyse=0x3:0x133 / me=umh / subme=11 / psy=1 / psy_rd=1.00:0.15 / mixed_ref=1 / me_range=32 / chroma_me=1 / trellis=2 / 8x8dct=1 / cqm=0 / deadzone=21,11 / fast_pskip=0 / chroma_qp_offset=-3 / threads=12 / lookahead_threads=1 / sliced_threads=0 / nr=0 / decimate=0 / interlaced=0 / bluray_compat=0 / constrained_intra=0 / bframes=6 / b_pyramid=2 / b_adapt=2 / b_bias=0 / direct=3 / weightb=1 / open_gop=0 / weightp=2 / keyint=250 / keyint_min=23 / scenecut=40 / intra_refresh=0 / rc_lookahead=60 / rc=2pass / mbtree=1 / bitrate=2000 / ratetol=1.0 / qcomp=0.60 / qpmin=0 / qpmax=69 / qpstep=4 / cplxblur=20.0 / qblur=0.5 / ip_ratio=1.40 / aq=2:0.70
Language                       : English
Default                        : Yes
Forced                         : No
Audio #1
ID                             : 2
Format                         : AC-3
Format/Info                    : Audio Coding 3
Mode extension                 : CM (complete main)
Format settings, Endianness    : Big
Codec ID                       : A_AC3
Duration                       : 24mn 9s
Bit rate mode                  : Constant
Bit rate                       : 192 Kbps
Channel(s)                     : 2 channels
Channel positions              : Front: L R
Sampling rate                  : 48.0 KHz
Bit depth                      : 16 bits
Compression mode               : Lossy
Stream size                    : 33.2 MiB (8%)
Title                          : DVO (CBS Drama)
Language                       : Russian
Default                        : Yes
Forced                         : No
Audio #2
ID                             : 3
Format                         : AC-3
Format/Info                    : Audio Coding 3
Mode extension                 : CM (complete main)
Format settings, Endianness    : Big
Codec ID                       : A_AC3
Duration                       : 24mn 9s
Bit rate mode                  : Constant
Bit rate                       : 192 Kbps
Channel(s)                     : 2 channels
Channel positions              : Front: L R
Sampling rate                  : 48.0 KHz
Bit depth                      : 16 bits
Compression mode               : Lossy
Stream size                    : 33.2 MiB (8%)
Title                          : Original
Language                       : English
Default                        : No
Forced                         : No
Text
ID                             : 4
Format                         : UTF-8
Codec ID                       : S_TEXT/UTF8
Codec ID/Info                  : UTF-8 Plain Text
Title                          : SDH
Language                       : English
Default                        : No
Forced                         : No
Menu
00:00:00.000                   : en:Chapter 1
00:01:10.667                   : en:Chapter 2
00:13:07.501                   : en:Chapter 3
00:22:56.102                   : en:Chapter 4
00:23:30.803                   : en:Chapter 5
00:24:07.637                   : en:Chapter 6
[/spoiler]
-
Вне форума [Профиль] [ЛС]
Показать сообщения:    
Ответить на тему

Текущее время: Сегодня 03:28

Часовой пояс: GMT + 3



Вы не можете начинать темы
Вы не можете отвечать на сообщения
Вы не можете редактировать свои сообщения
Вы не можете удалять свои сообщения
Вы не можете голосовать в опросах
Вы не можете прикреплять файлы к сообщениям
Вы не можете скачивать файлы