Сегодня идет свободное скачивание без начисления Download

Волчья кровь / Wolfblood / Сезон: 4 / Серии: 1-3 из 14 (Эндрю Ганн, Деклан О’Двайр, Уильям Синклер) [2016, фэнтези, HDTVRip 720p] MVO (DreamRecords) + Original + Rus Sub

Ответить на тему
 
Автор
Сообщение

Omen ®

Стаж: 6 лет 1 месяц

Сообщений: 184308

Торрент-статистика

Пост 08-Май-2016 21:33

[Цитировать]

Волчья кровь / Wolfblood- Год выпуска: 2016
Страна: Великобритания
Жанр: фэнтези
Продолжительность: ~00:28:00
Перевод: Профессиональный (многоголосый закадровый) - (DreamRecords)
Субтитры: русские
Режиссёр: Эндрю Ганн, Деклан О’Двайр, Уильям Синклер
В ролях: Айми Келли, Бобби Локвуд, Кедар Уильямс-Стирлинг, Луиза Конолли-Бёрнхем, Анджела Лонсдэйл, Shorelle Hepkin, Rachel Teate, Gabrielle Green, Джонатан Раджетт, Ниек Верстиг
Описание: Полуволки жили среди нас столетиями, скрывая свои нечеловеческие способности. Они держались обособленными группами. Мэдди и её родители были единственными полуволками на своей территории. Пока в один прекрасный день в школе Мэдди не появился новенький…-Доп. информация:Озвучено: DreamRecords
Перевод: Константин Кривоногов
Автор постера: mystery
Работа со звуком: Алексей Фокин
Текст читали:
  • Анастасия Флигина
  • Светлана Чистохина
  • Владислав Данилов
  • Алексей Воленко
    -
    Сэмпл-Качество: HDTVRip 720p
    Формат: MKV
    Видео кодек: x.264
    Аудио кодек: AC3
    Видео: 1280x720 (16:9), 25.000 fps, 3 046 Kbps, 0.132 bit/pixel
    Аудио 1: AC3, 48 KHz, 192 kbps, 2 ch - Rus
    Аудио 2: AC3, 48 KHz, 192 kbps, 2 ch - Eng
    Субтитры: srt (softsub)-

MediaInfo

Код:
Format                      : Matroska
Format version              : Version 2
File size                   : 704 MiB
Duration                    : 28mn 7s
Overall bit rate            : 3 500 Kbps
Encoded date                : UTC 2016-04-29 20:08:29
Writing application         : mkvmerge v5.8.0 ('No Sleep / Pillow') built on Sep  2 2012 15:37:04
Writing library             : libebml v1.2.3 + libmatroska v1.3.0
Video
ID                          : 1
Format                      : AVC
Format/Info                 : Advanced Video Codec
Format profile              : High@L4.1
Format settings, CABAC      : Yes
Format settings, ReFrames   : 5 frames
Codec ID                    : V_MPEG4/ISO/AVC
Duration                    : 28mn 7s
Bit rate                    : 3 046 Kbps
Width                       : 1 280 pixels
Height                      : 720 pixels
Display aspect ratio        : 16:9
Frame rate mode             : Constant
Frame rate                  : 25.000 fps
Color space                 : YUV
Chroma subsampling          : 4:2:0
Bit depth                   : 8 bits
Scan type                   : Progressive
Bits/(Pixel*Frame)          : 0.132
Stream size                 : 613 MiB (87%)
Writing library             : x264 core 148 r2665 a01e339
Encoding settings           : cabac=1 / ref=5 / deblock=1:0:0 / analyse=0x3:0x113 / me=umh / subme=8 / psy=1 / psy_rd=1.00:0.00 / mixed_ref=1 / me_range=16 / chroma_me=1 / trellis=1 / 8x8dct=1 / cqm=0 / deadzone=21,11 / fast_pskip=1 / chroma_qp_offset=-2 / threads=12 / lookahead_threads=2 / sliced_threads=0 / nr=0 / decimate=1 / interlaced=0 / bluray_compat=0 / constrained_intra=0 / bframes=3 / b_pyramid=2 / b_adapt=2 / b_bias=0 / direct=3 / weightb=1 / open_gop=0 / weightp=2 / keyint=250 / keyint_min=25 / scenecut=40 / intra_refresh=0 / rc_lookahead=50 / rc=crf / mbtree=1 / crf=18.0 / qcomp=0.60 / qpmin=0 / qpmax=69 / qpstep=4 / ip_ratio=1.40 / aq=1:1.00
Language                    : English
Default                     : Yes
Forced                      : No
Color range                 : Limited
Matrix coefficients         : BT.709
Audio #1
ID                          : 2
Format                      : AC-3
Format/Info                 : Audio Coding 3
Mode extension              : CM (complete main)
Format settings, Endianness : Big
Codec ID                    : A_AC3
Duration                    : 28mn 7s
Bit rate mode               : Constant
Bit rate                    : 192 Kbps
Channel(s)                  : 2 channels
Channel positions           : Front: L R
Sampling rate               : 48.0 KHz
Frame rate                  : 31.250 fps (1536 spf)
Compression mode            : Lossy
Stream size                 : 38.6 MiB (5%)
Title                       : DreamRecords
Language                    : Russian
Default                     : Yes
Forced                      : No
Audio #2
ID                          : 3
Format                      : AC-3
Format/Info                 : Audio Coding 3
Mode extension              : CM (complete main)
Format settings, Endianness : Big
Codec ID                    : A_AC3
Duration                    : 28mn 7s
Bit rate mode               : Constant
Bit rate                    : 192 Kbps
Channel(s)                  : 2 channels
Channel positions           : Front: L R
Sampling rate               : 48.0 KHz
Frame rate                  : 31.250 fps (1536 spf)
Compression mode            : Lossy
Stream size                 : 38.6 MiB (5%)
Title                       : English
Language                    : English
Default                     : No
Forced                      : No
Text
ID                          : 4
Format                      : UTF-8
Codec ID                    : S_TEXT/UTF8
Codec ID/Info               : UTF-8 Plain Text
Title                       : Rus Sub
Language                    : Russian
Default                     : No
Forced                      : No

Внимание! Раздача ведется путем добавления серий:

Код:
Внимание! Раздача ведётся путём добавления новых серий; при каждом добавлении создётся новый торрент. Чтобы начать докачку новой серии, пользователям необходимо сделать следующее:
(1) остановить скачивание,
(2) удалить старый торрент у себя из клиента (старые серии удалять не надо),
(3) скачать новый торрент и запустить его у себя в клиенте вместо старого, при этом указать клиенту путь в старую папку куда и должно происходить скачивание новых серий.
Ваш клиент при этом должен произвести хеширование (проверку) старой папки (если не производит сам - помогите ему сделать это), и будет докачивать только те серии которых у вас ещё нет. Старые серии при этом не удаляются, а продолжают раздаваться!
Eсли вы уже удалили старые серии, то предотвратить повторную закачку старых серий можно, отжав галочку в соответсвующих местах при запуске нового торрента. По возможности, желательно не удалять старые серии как можно дольше чтобы релизёр не столько продолжал раздавать старые серии, а смог сконцентрироваться на новых.

Скриншоты

--Добавлена 3 серия!-
Вне форума [Профиль] [ЛС]
Показать сообщения:    
Ответить на тему

Текущее время: Сегодня 19:18

Часовой пояс: GMT + 3



Вы не можете начинать темы
Вы не можете отвечать на сообщения
Вы не можете редактировать свои сообщения
Вы не можете удалять свои сообщения
Вы не можете голосовать в опросах
Вы не можете прикреплять файлы к сообщениям
Вы не можете скачивать файлы