Сегодня идет свободное скачивание без начисления Download

Безмолвный свидетель / Немой свидетель / Silent Witness / Сезон: 18 / Серии: 1-2 из 10 (Сьюзан Талли, Энтони Бирн, Кит Боук, Дади Эпплтон, Джеймс Стронг) [2015, драма, детектив, HDTVRip-AVC] VO (VO Project Web Mania) + Rus Sub + Original

Ответить на тему
 
Автор
Сообщение

Omen ®

Стаж: 5 лет 9 месяцев

Сообщений: 184433

Торрент-статистика

Пост 08-Май-2016 18:00

[Цитировать]

Безмолвный свидетель / Немой свидетель / Silent Witness
Год выпуска: 2015
Страна: Великобритания
Жанр: драма, детектив
Продолжительность: 00:59:00
Перевод: Любительский (одноголосый закадровый) VO_Project_Web_Mania
Режиссёр: Сьюзан Талли, Энтони Бирн, Кит Боук, Дади Эпплтон, Джеймс Стронг
В ролях: Уильям Гаминара, Том Уорд, Эмилия Фокс
Описание: Благодаря скрупулезной работе команды судмедэкспертов английским полицейским удается распутывать самые сложные преступления...
Ссылка на предыдущие и альтернативные раздачи: [url=tracker.php?f=189&nm=Silent+Witness]http:///*spam*//forum/tracker.php?f=189&nm...nt+Witness[/url]
Сэмпл: http://multi-up.com/1100849
Качество: HDTVRip
Формат: MKV
Видео: AVC, 1280x720, 16:9, 25 fps, 2800 Кбит/с
Аудио: AC3, 192 Kbps, 48.0 KHz, 2 channels VO_Project_Web_Mania
Аудио 2: AC3, 192 Kbps, 48.0 KHz, 2 channels original
Субтитры: русские

MediaInfo

18_сезон_Безмолвный Свидетель_VO+SUB\01_serya_VO+SUB.mkv
Формат : Matroska
Версия формата : Version 2
Размер файла : 1,00 Гбайт
Продолжительность : 58 м.
Общий поток : 2462 Кбит/сек
Дата кодирования : UTC 2016-03-05 14:01:26
Программа кодирования : mkvmerge v5.0.1 ('Es ist Sommer') built on Oct 9 2011 11:55:43
Библиотека кодирования : libebml v1.2.2 + libmatroska v1.3.0
Видео
Идентификатор : 1
Формат : AVC
Формат/Информация : Advanced Video Codec
Профиль формата : High@L4.1
Параметр CABAC формата : Да
Параметр ReFrames формата : 5 кадров
Идентификатор кодека : V_MPEG4/ISO/AVC
Продолжительность : 58 м.
Битрейт : 2029 Кбит/сек
Ширина : 1280 пикс.
Высота : 720 пикс.
Соотношение сторон : 16:9
Частота кадров : 25,000 кадр/сек
Цветовое пространство : YUV
Подвыборка цветности : 4:2:0
Битовая глубина : 8 бит
Тип развёртки : Прогрессивная
Бит/(Пиксели*Кадры) : 0.088
Размер потока : 844 Мбайт (82%)
Библиотека кодирования : x264 core 144 r2525 40bb568
Настройки программы : cabac=1 / ref=5 / deblock=1:0:0 / analyse=0x3:0x113 / me=umh / subme=8 / psy=1 / psy_rd=1.00:0.00 / mixed_ref=1 / me_range=16 / chroma_me=1 / trellis=1 / 8x8dct=1 / cqm=0 / deadzone=21,11 / fast_pskip=1 / chroma_qp_offset=-2 / threads=12 / lookahead_threads=2 / sliced_threads=0 / nr=0 / decimate=1 / interlaced=0 / bluray_compat=0 / constrained_intra=0 / bframes=3 / b_pyramid=2 / b_adapt=2 / b_bias=0 / direct=3 / weightb=1 / open_gop=0 / weightp=2 / keyint=250 / keyint_min=25 / scenecut=40 / intra_refresh=0 / rc_lookahead=50 / rc=crf / mbtree=1 / crf=19.0 / qcomp=0.60 / qpmin=0 / qpmax=69 / qpstep=4 / ip_ratio=1.40 / aq=1:1.00
Язык : English
Аудио #1
Идентификатор : 2
Формат : AC-3
Формат/Информация : Audio Coding 3
Расширение режима : CM (complete main)
Идентификатор кодека : A_AC3
Продолжительность : 58 м.
Вид битрейта : Постоянный
Битрейт : 192 Кбит/сек
Каналы : 2 канала
Расположение каналов : Front: L R
Частота : 48,0 КГц
Битовая глубина : 16 бит
Метод сжатия : С потерями
Размер потока : 79,9 Мбайт (8%)
Заголовок : VO_Project_Web_Mania
Язык : Russian
Аудио #2
Идентификатор : 3
Формат : AC-3
Формат/Информация : Audio Coding 3
Расширение режима : CM (complete main)
Идентификатор кодека : A_AC3
Продолжительность : 58 м.
Вид битрейта : Постоянный
Битрейт : 192 Кбит/сек
Каналы : 2 канала
Расположение каналов : Front: L R
Частота : 48,0 КГц
Битовая глубина : 16 бит
Метод сжатия : С потерями
Размер потока : 79,9 Мбайт (8%)
Язык : English
Текст
Идентификатор : 4
Формат : UTF-8
Идентификатор кодека : S_TEXT/UTF8
Идентификатор кодека/Информация : UTF-8 Plain Text
Язык : Russian

Скриншоты

Вне форума [Профиль] [ЛС]
Показать сообщения:    
Ответить на тему

Текущее время: Сегодня 23:26

Часовой пояс: GMT + 3



Вы не можете начинать темы
Вы не можете отвечать на сообщения
Вы не можете редактировать свои сообщения
Вы не можете удалять свои сообщения
Вы не можете голосовать в опросах
Вы не можете прикреплять файлы к сообщениям
Вы не можете скачивать файлы