Сегодня идет свободное скачивание без начисления Download

Марсель / Marseille / Сезон: 1 / Серии: 1-6 из 8 (Флорен Сири) [2016, Драма, WEBRip] MVO (BaibaKo) + Original

Ответить на тему
 
Автор
Сообщение

Omen ®

Стаж: 5 лет 6 месяцев

Сообщений: 186946

Торрент-статистика

Пост 08-Май-2016 18:00

[Цитировать]

-Марсель | Marseille- Год выпуска: 2016
Страна: Франция, США
Жанр: драма
Продолжительность: ~ 00:43:00-Перевод: Профессиональный (многоголосый закадровый) | BaibaKo-Режиссёр: Флорен Сири-В ролях: Жерар Депардье, Бенуа Мажимель, Жеральдин Пайя, Надя Фарес, Стефани Кайлар и др.-Описание: Сериал расскажет о погрязшем в коррупции мире французских политиков. Робер Таро может потерять нагретое за долгие годы у власти кресло мэра города на юге Франции. Угроза исходит от главного противника на предстоящих выборах – молодого амбициозного политика, начинавшего свою политическую карьеру под крылом Таро.- -Качество: WEBRip
Формат: AVI
Видео: XviD, ~ 1500 kbps, 720x400 (16:9), 25 fps
Аудио 1: AC3, 48,0 КГц, 2 ch, 192 kbps - Rus
Аудио 2: AC3, 48,0 КГц, 2 ch, 192 kbps - Eng
Субтитры: отсутствуют
Присутствует голосовая + текстовая реклама.-

Релиз

Перевод: Александра Зубко, Фиона Кудреватых, Елена Анищенко
Озвучка: Anna_Smile, Сергей Корчак, Олекса Мельник и Акмал Гурезов

MediaInfo

Код:
Общее
Полное имя                               : D:\загрузки\Marseille (season 01) BaibaKo\Marseille.s01e01.WEBRip.Rus.Eng.BaibaKo.avi
Формат                                   : AVI
Формат/Информация                        : Audio Video Interleave
Размер файла                             : 590 Мбайт
Продолжительность                        : 43 м.
Общий поток                              : 1883 Кбит/сек
Программа кодирования                    : VirtualDubMod 1.5.10.2 (build 2540/release)
Библиотека кодирования                   : VirtualDubMod build 2540/release
Видео
Идентификатор                            : 0
Формат                                   : MPEG-4 Visual
Профиль формата                          : Simple@L3
Параметр BVOP формата                    : Нет
Параметр QPel формата                    : Нет
Параметр GMC формата                     : Без точки перехода
Параметр матрицы формата                 : Default (H.263)
Идентификатор кодека                     : XVID
Идентификатор кодека/Подсказка           : XviD
Продолжительность                        : 43 м.
Битрейт                                  : 1484 Кбит/сек
Ширина                                   : 720 пикселей
Высота                                   : 400 пикселей
Соотношение сторон                       : 16:9
Частота кадров                           : 25,000 кадров/сек
Цветовое пространство                    : YUV
Субдискретизация насыщенности            : 4:2:0
Битовая глубина                          : 8 бит
Тип развёртки                            : Прогрессивная
Метод сжатия                             : С потерями
Бит/(Пиксели*Кадры)                      : 0.206
Размер потока                            : 465 Мбайт (79%)
Библиотека кодирования                   : XviD 73
Аудио #1
Идентификатор                            : 1
Формат                                   : AC-3
Формат/Информация                        : Audio Coding 3
Расширение режима                        : CM (complete main)
Параметр Endianness формата              : Big
Идентификатор кодека                     : 2000
Продолжительность                        : 43 м.
Вид битрейта                             : Постоянный
Битрейт                                  : 192 Кбит/сек
Каналы                                   : 2 канала
Расположение каналов                     : Front: L R
Частота                                  : 48,0 КГц
Битовая глубина                          : 16 бит
Метод сжатия                             : С потерями
Задержка видео                           : 24 мс.
Размер потока                            : 60,2 Мбайт (10%)
Выравнивание                             : Разделение по промежуткам
Продолжительность промежутка             : 40  мс. (1,00 видеокадр)
Время предзагрузки промежутка            : 500  мс.
Аудио #2
Идентификатор                            : 2
Формат                                   : AC-3
Формат/Информация                        : Audio Coding 3
Расширение режима                        : CM (complete main)
Параметр Endianness формата              : Big
Идентификатор кодека                     : 2000
Продолжительность                        : 43 м.
Вид битрейта                             : Постоянный
Битрейт                                  : 192 Кбит/сек
Каналы                                   : 2 канала
Расположение каналов                     : Front: L R
Частота                                  : 48,0 КГц
Битовая глубина                          : 16 бит
Метод сжатия                             : С потерями
Задержка видео                           : 23 мс.
Размер потока                            : 60,2 Мбайт (10%)
Выравнивание                             : Разделение по промежуткам
Продолжительность промежутка             : 40  мс. (1,00 видеокадр)
Время предзагрузки промежутка            : 500  мс.
[/spoiler]

Скриншоты

Раздача ведется путем добавления новых серий

Когда раздача ведётся путём добавления новых серий, при каждом добавлении создётся новый торрент. Чтобы начать докачку новой серии, пользователям необходимо сделать следующее:
(1) остановить скачивание,
(2) удалить старый торрент у себя из клиента (старые серии удалять не надо),
(3) скачать новый торрент и запустить его у себя в клиенте вместо старого, при этом указать клиенту путь в старую папку, куда и должно происходить скачивание новых серий.
Ваш клиент при этом должен произвести хеширование (проверку) старой папки (если не производит сам - помогите ему сделать это), и будет докачивать только те серии, которых у вас ещё нет. Старые серии при этом не удаляются, а продолжают раздаваться!
Eсли вы уже удалили старые серии, то предотвратить повторную закачку старых серий можно, отжав галочку в соответсвующих местах при запуске нового торрента. По возможности, желательно не удалять старые серии как можно дольше, чтобы релизёр не столько продолжал раздавать старые серии, а смог сконцентрироваться на новых.
-
Вне форума [Профиль] [ЛС]
Показать сообщения:    
Ответить на тему

Текущее время: Сегодня 01:24

Часовой пояс: GMT + 3



Вы не можете начинать темы
Вы не можете отвечать на сообщения
Вы не можете редактировать свои сообщения
Вы не можете удалять свои сообщения
Вы не можете голосовать в опросах
Вы не можете прикреплять файлы к сообщениям
Вы не можете скачивать файлы