Сегодня идет свободное скачивание без начисления Download

Розвелл (Город пришельцев) / Roswell / Сезон: 2 / Серии: 1-21 из 21 (Джейсон Кэтимс) [2000, фантастика, романтика, драма, DVDRemux] MVO (ТВ - 3)

Ответить на тему
 
Автор
Сообщение

Omen ®

Стаж: 5 лет 7 месяцев

Сообщений: 185427

Торрент-статистика

Пост 08-Май-2016 12:00

[Цитировать]

Розвелл (Город пришельцев) / Roswell
Год выпуска: 2000
Страна: США
Жанр: фантастика, романтика, драма
Продолжительность: 42
Перевод: Профессиональный (многоголосый закадровый) ТВ - 3
Режиссёр: Джейсон Кэтимс
В ролях: Шири Эплби, Джэйсон Бэр, Кэтрин Хэйл, Брэндан Фэр, Маджандра Дэлфино, Колин Хэнкс, Уильям Садлер, Ник Вэкслер
Описание: ... В 1947 году, в Розвеле произошла авария НЛО. В 1989 году, потомки пришельцев Макс Эванс, Изабель Эванс и Майкл Герин, появились из инкубационных камер, выглядевшими как 6-ти летние человеческие дети. Они были найдены в пустыне и усыновлены приемными родителями. Они вели свою жизнь как все обычные люди на земле, пока в 1999, Лиз Паркер не была застрелена в кафе "Крушение", и Макс, рискуя всем не использовал свои способности, чтобы ее исцелить.
С того момента все изменилось ...
Сэмпл: http://sendfile.su/1231920
Качество: DVDRemux
Формат: MKV
Видео: MPEG 2, PAL, 720х576, 16:9, ~4700 kbps, 25.000 fps
Аудио: русский ac3 48000Hz стерео 192Kbps
Субтитры: Отсутствуют

Список серий

1. Skin and Bones
2. Ask Not
3. Surprise
4. Summer of '47
5. The End of the World
6. Harvest
7. Wipeout!
8. Meet the Dupes
9. Max in the City
10. A Roswell Christmas Carol
11. To Serve and Protect
12. We Are Family
13. Disturbing Behavior
14. How the Other Half Lives
15. Viva Las Vegas
16. Heart of Mine
17. Cry Your Name
18. It's Too Late and It's Too Bad
19. Baby, It's You
20. Off the Menu
21. The Departure

MediaInfo

General
Complete name : ..........\Roswell s02\Roswell.s02e01.DVDRemux.mkv
Format : Matroska
Format version : Version 4 / Version 2
File size : 1.42 GiB
Duration : 41mn 43s
Overall bit rate mode : Variable
Overall bit rate : 4 885 Kbps
Encoded date : UTC 2016-05-03 15:05:51
Writing application : mkvmerge v8.2.0 ('World of Adventure') 64bit
Writing library : libebml v1.3.1 + libmatroska v1.4.2
Video
ID : 1
Format : MPEG Video
Format version : Version 2
Format profile : Main@Main
Format settings, BVOP : Yes
Format settings, Matrix : Custom
Format settings, GOP : M=3, N=15
Codec ID : V_MPEG2
Codec ID/Info : MPEG 1 or 2 Video
Duration : 41mn 43s
Bit rate mode : Variable
Bit rate : 4 688 Kbps
Maximum bit rate : 7 500 Kbps
Width : 720 pixels
Height : 576 pixels
Display aspect ratio : 16:9
Frame rate mode : Constant
Frame rate : 25.000 fps
Standard : PAL
Color space : YUV
Chroma subsampling : 4:2:0
Bit depth : 8 bits
Scan type : Progressive
Scan order : Top Field First
Compression mode : Lossy
Bits/(Pixel*Frame) : 0.452
Time code of first frame : 00:59:59:00
Time code source : Group of pictures header
GOP, Open/Closed : Open
GOP, Open/Closed of first fram : Closed
Stream size : 1.37 GiB (96%)
Default : Yes
Forced : No
Audio
ID : 2
Format : AC-3
Format/Info : Audio Coding 3
Mode extension : CM (complete main)
Format settings, Endianness : Big
Codec ID : A_AC3
Duration : 41mn 43s
Bit rate mode : Constant
Bit rate : 192 Kbps
Channel(s) : 2 channels
Channel positions : Front: L R
Sampling rate : 48.0 KHz
Frame rate : 31.250 fps (1536 spf)
Compression mode : Lossy
Stream size : 57.3 MiB (4%)
Default : Yes
Forced : No

Первый сезон

[url=viewtopic.php?t=5215616]http:///*spam*//forum/viewtopic.php?t=5215616[/url]

Скриншоты




Благодарности

За предоставленные DVD диски спасибо уважаемому Kel163
Вне форума [Профиль] [ЛС]
Показать сообщения:    
Ответить на тему

Текущее время: Сегодня 22:40

Часовой пояс: GMT + 3



Вы не можете начинать темы
Вы не можете отвечать на сообщения
Вы не можете редактировать свои сообщения
Вы не можете удалять свои сообщения
Вы не можете голосовать в опросах
Вы не можете прикреплять файлы к сообщениям
Вы не можете скачивать файлы