Сегодня идет свободное скачивание без начисления Download

Винтер / Winter / Сезон: 1 / Серии: 1-2 из 6 (Ширли Баррет, Линн Хегарти, Йен Уотсон) [2015 г.,Детектив, криминал, WEB-DLRip] DVO (Victory-Films )

Ответить на тему
 
Автор
Сообщение

Omen ®

Стаж: 5 лет 11 месяцев

Сообщений: 184329

Торрент-статистика

Пост 06-Май-2016 18:00

[Цитировать]

Винтер / Winter Год выпуска: 2015
Страна: Австралия
Жанр: Детектив, криминал
Продолжительность: ~ 00:41:00
Перевод: Любительский (двухголосый закадровый) (Victory-Films )
Оригинальная аудиодорожка: Нет
Режиссёр: Ширли Баррет, Линн Хегарти, Йен Уотсон
В ролях: Ребекка Гибни, Питер О’Брайэн, Мэттью Нэйбл, Антония Преббл, Акос Армонт, Сара Уэст, Ричард Хили, Рэйчел Гордон, Тара Морис, Линдсэй Фаррис
Описание: Сидней, Кинг-кросс. Молодую девушку Индиану Хоуп, переходящую дорогу, сбивает автомобиль. Она попадает в больницу. В эту же ночь в небольшом рыбацком городке Роки Пойнт 23-летнюю молодую мать 2-х детей Карли Йохансен находят сброшенной с обрыва на камни. Детектив Ева Винтер берётся за расследование смерти девушки. Её напарник, детектив сержант Лаклан Маккензи подозревает, что убийство Карли связано с подобным убийством, произошедшим 8 лет назад. Ещё более загадочным дело становится, когда выясняется, что девушки дружат с детства и даже какое-то время росли в одном месте, а накануне гибели Карли они проговорили весь вечер…
Группа желает всем приятного просмотра!
Релиз без рекламы.
Качество: WEB-DLRip
Формат: AVI
Видео: 720x400 (1.80:1), 25 fps, XviD build 65 ~1270 kbps avg, 0.18 bit/pixel
Аудио : 48 kHz, AC3 Dolby Digital, 2/0 (L,R) ch, ~192 kbps
Субтитры: отсутствуют
[url=tracker.php?f=189&nm=Winter]Все раздачи сериала[/url]

Содержание

01. Скелеты в шкафу.
02. Сбежавшие девушки.
03. Связующее звено.
04. Внутренний свидетель.
05. Дело проясняется.
06. Всё сначала.

MediaInfo

General
Complete name : C:\Users\Никита\Desktop\1 сери кино.avi
Format : AVI
Format/Info : Audio Video Interleave
File size : 441 MiB
Duration : 41mn 50s
Overall bit rate : 1 472 Kbps
Writing application : VirtualDubMod 1.5.10.2 (build 2540/release)
Writing library : VirtualDubMod build 2540/release
Video
ID : 0
Format : MPEG-4 Visual
Format profile : Advanced Simple@L5
Format settings, BVOP : 1
Format settings, QPel : No
Format settings, GMC : No warppoints
Format settings, Matrix : Custom
Codec ID : XVID
Codec ID/Hint : XviD
Duration : 41mn 50s
Bit rate : 1 270 Kbps
Width : 720 pixels
Height : 400 pixels
Display aspect ratio : 16:9
Frame rate : 25.000 fps
Color space : YUV
Chroma subsampling : 4:2:0
Bit depth : 8 bits
Scan type : Progressive
Compression mode : Lossy
Bits/(Pixel*Frame) : 0.176
Stream size : 380 MiB (86%)
Writing library : XviD 65
Audio
ID : 1
Format : AC-3
Format/Info : Audio Coding 3
Mode extension : CM (complete main)
Format settings, Endianness : Big
Codec ID : 2000
Duration : 41mn 50s
Bit rate mode : Constant
Bit rate : 192 Kbps
Channel(s) : 2 channels
Channel positions : Front: L R
Sampling rate : 48.0 KHz
Frame rate : 31.250 fps (1536 spf)
Compression mode : Lossy
Stream size : 57.5 MiB (13%)
Alignment : Split accross interleaves
Interleave, duration : 40 ms (1.00 video frame)
Interleave, preload duratio : 500 ms

Скриншоты

Вне форума [Профиль] [ЛС]
Показать сообщения:    
Ответить на тему

Текущее время: Сегодня 14:16

Часовой пояс: GMT + 3



Вы не можете начинать темы
Вы не можете отвечать на сообщения
Вы не можете редактировать свои сообщения
Вы не можете удалять свои сообщения
Вы не можете голосовать в опросах
Вы не можете прикреплять файлы к сообщениям
Вы не можете скачивать файлы