Сегодня идет свободное скачивание без начисления Download

Девушка по вызову / The Girlfriend Experience / Сезон: 1-13 (13) (Лодж Х. Керриган, Эми Саймец) [2016 г., драма, эротика, HDTVRip 720p] MVO (FocusStudio)

Ответить на тему
 
Автор
Сообщение

Omen ®

Стаж: 5 лет 10 месяцев

Сообщений: 184329

Торрент-статистика

Пост 01-Май-2016 15:00

[Цитировать]

-Девушка по вызову / The Girlfriend Experience
1 сезон
- Год выпуска: 2016
Страна:США
Жанр: драма, эротика
Продолжительность: 13 х ~26-29 мин
Перевод: профессиональный многоголосый закадровый (FocusStudio)-Режиссёры: Лодж Х. Керриган, Эми Саймец-В ролях: Райли Кио, Пол Спаркс, Брайони Гласско, Мэри Линн Райскаб, Сугит Варухесе, Майкл Терриоль, Сабрин Рок, Кейт Хьюлетт, Дженни Рэйвен, Александра Кастилло и др.-Описание: Студентка юридического факультета Кристин погружается в новый для нее мир эскорта исключительно из прагматических соображений. Но она оказывается не готова к трудностям, которые выпадают на долю тех, кто ведет двойную жизнь.-Релиз: - -Качество: HDTVRip 720p
Формат: MKV
Видео: AVC, 1280x720 (16:9), 23,976 fps, ~3500 kbps
Аудио Rus: AC3, 48 kHz, 2 ch, 192 kbps, CBR (с 6 серии 6 ch, 640 kbps)
Аудио Eng: AC3, 48 kHz, 2 ch, 192 kbps, CBR (с 6 серии 6 ch, 640 kbps)
Субтитры: русские (форсированные)-

Скриншоты

MediaInfo

Format : Matroska
Format version : Version 4 / Version 2
File size : 757 MiB
Duration : 27mn 17s
Overall bit rate : 3 881 Kbps
Movie name : Girlfriend Experience 1x1 @ FocusStudio
Encoded date : UTC 2016-04-17 22:39:45
Writing application : mkvmerge v8.3.0 ('Over the Horizon') 64bit
Writing library : libebml v1.3.1 + libmatroska v1.4.2
Video
ID : 1
Format : AVC
Format/Info : Advanced Video Codec
Format profile : High@L4.1
Format settings, CABAC : Yes
Format settings, ReFrames : 9 frames
Codec ID : V_MPEG4/ISO/AVC
Duration : 27mn 17s
Bit rate : 3 500 Kbps
Width : 1 280 pixels
Height : 720 pixels
Display aspect ratio : 16:9
Frame rate mode : Constant
Frame rate : 23.976 fps
Color space : YUV
Chroma subsampling : 4:2:0
Bit depth : 8 bits
Scan type : Progressive
Bits/(Pixel*Frame) : 0.158
Stream size : 667 MiB (88%)
Writing library : x264 core 148 r0+2717 2732536 t_mod_Custom [8-bit@all X86_64]
Encoding settings : cabac=1 / ref=9 / deblock=1:-3:-3 / analyse=0x3:0x133 / me=umh / subme=11 / psy=1 / fade_compensate=0.00 / psy_rd=0.95:0.00 / mixed_ref=1 / me_range=48 / chroma_me=1 / trellis=2 / 8x8dct=1 / cqm=0 / deadzone=21,11 / fast_pskip=0 / chroma_qp_offset=-2 / threads=12 / lookahead_threads=3 / sliced_threads=0 / nr=0 / decimate=0 / interlaced=0 / bluray_compat=0 / constrained_intra=0 / fgo=0 / bframes=10 / b_pyramid=2 / b_adapt=2 / b_bias=0 / direct=3 / weightb=1 / open_gop=0 / weightp=2 / keyint=240 / keyint_min=24 / scenecut=40 / intra_refresh=0 / rc=2pass / mbtree=0 / bitrate=3500 / ratetol=1.0 / qcomp=0.80 / qpmin=0:0:0 / qpmax=69:69:69 / qpstep=4 / cplxblur=20.0 / qblur=0.5 / ip_ratio=1.30 / pb_ratio=1.30 / aq=3:0.80 / aq-sensitivity=10.00 / aq-factor=1.00:1.00:1.00 / aq2=0 / aq3=0
Language : English
Default : Yes
Forced : No
Audio #1
ID : 2
Format : AC-3
Format/Info : Audio Coding 3
Mode extension : CM (complete main)
Format settings, Endianness : Big
Codec ID : A_AC3
Duration : 27mn 17s
Bit rate mode : Constant
Bit rate : 192 Kbps
Channel(s) : 2 channels
Channel positions : Front: L R
Sampling rate : 48.0 KHz
Compression mode : Lossy
Stream size : 37.5 MiB (5%)
Title : MVO FocusStudio
Language : Russian
Default : Yes
Forced : No
Audio #2
ID : 3
Format : AC-3
Format/Info : Audio Coding 3
Mode extension : CM (complete main)
Format settings, Endianness : Big
Codec ID : A_AC3
Duration : 27mn 17s
Bit rate mode : Constant
Bit rate : 192 Kbps
Channel(s) : 2 channels
Channel positions : Front: L R
Sampling rate : 48.0 KHz
Compression mode : Lossy
Stream size : 37.5 MiB (5%)
Language : English
Default : No
Forced : No

Раздача ведется путем добавления новых серий

Когда раздача ведётся путём добавления новых серий, при каждом добавлении создаётся новый торрент. Чтобы начать докачку новой серии, пользователям необходимо сделать следующее:
(1) остановить скачивание,
(2) удалить старый торрент у себя из клиента (старые серии удалять не надо),
(3) скачать новый торрент и запустить его у себя в клиенте вместо старого, при этом указать клиенту путь в старую папку, куда и должно происходить скачивание новых серий.
Ваш клиент при этом должен произвести хеширование (проверку) старой папки (если не производит сам - помогите ему сделать это), и будет докачивать только те серии, которых у вас ещё нет. Старые серии при этом не удаляются, а продолжают раздаваться!
Если вы уже удалили старые серии, то предотвратить повторную закачку старых серий можно, отжав галочку в соответствующих местах при запуске нового торрента. По возможности, желательно не удалять старые серии как можно дольше, чтобы релизёр не столько продолжал раздавать старые серии, а смог сконцентрироваться на новых.
-
Вне форума [Профиль] [ЛС]
Похожие темы
Форум Тема Автор Торрент Отв. Посл. сообщение
./templates/default/images/folder_dl.gif Эротические игры Virtual date girls: Erica (RUS) / Виртуальные девушки Эрика русская версия [Demo] [RUS / RUS] (2013) (1.0) Omen
0 | 1

0 | 4950

8

2013-09-21 15:25
Omen Последнее
Показать сообщения:    
Ответить на тему

Текущее время: Сегодня 14:44

Часовой пояс: GMT + 3



Вы не можете начинать темы
Вы не можете отвечать на сообщения
Вы не можете редактировать свои сообщения
Вы не можете удалять свои сообщения
Вы не можете голосовать в опросах
Вы не можете прикреплять файлы к сообщениям
Вы не можете скачивать файлы