Сегодня идет свободное скачивание без начисления Download

В объезд / Та еще поездочка / The Detour / Сезон: 1 / Серии: 1-3 из 10 (Джефф Томсич, Стив Пинк, Бреннан Шрофф / Jeff Tomsic, Steve Pink, Brennan Shroff) [2016 г., комедия, роуд-сериал, WEB-DL 720p] MVO (Jaskier) + Original

Ответить на тему
 
Автор
Сообщение

Omen ®

Стаж: 5 лет 7 месяцев

Сообщений: 185427

Торрент-статистика

Пост 30-Апр-2016 15:00

[Цитировать]

Та еще поездочка / The Detour- Оригинальное название: The Detour
Русское название: Та еще поездочка
Год выпуска: 2016
Страна: США
Жанр: Комедия, роуд-сериал
Продолжительность: ~00:20:00-Перевод: Профессиональный (многоголосый закадровый) Студия Jaskier
Субтитры: Нет-Режиссёр: Джефф Томсич, Стив Пинк, Бреннан Шрофф-В ролях: Джейсон Джонс, Натали Зи, Эшли Герасимович, Лайам Кэрролл, Мэри Грилл, Даниэлла Пинеда, Фил Ривз, Дэрин Купер, Деджа Ди, Тейлор Ковальски, Винс Фостер, Денитра Ислер, Адам Бойер, Том Амандес и др.-Описание: История небольшой семьи с двумя детьми, которая решила отправиться в долгое путешествие от родного дома прямиком до Флориды. Путь непростой, но герои всегда оптимистичны — они верят в себя, а их путь благоволит им. Кажется, что впереди их ждет долгая дорога, полная интересных открытий. Однако поездка оказывается не такой удачной! Вскоре положительный настрой сменяется упадническими чувствами, ведь героев начинают преследовать неудачи… одна за другой. И отбоя от них нет!-Сэмпл-Качество: WEB-DL 720p
Формат: MKV
Видео кодек: h.264
Аудио кодек: AC3
Видео: H.264, 1280x720 (16:9), 23.976 fps, 3890 kbps, 0.180 bit/pixel-Аудио 1: Dolby AC3 48000Hz stereo 192 Kbps Русский
Аудио 2: Dolby AAC 48000Hz 6ch 384 Kbps Оригинал (Английский)-

MediaInfo

Код:
General
Unique ID                   : 193736058358699327466673179230410061819 (0x91C03525EEC606F0BAA4989D202B37FB)
Complete name               : Z:\HD\The Detour. Season 1 (WEB-DL l 720p l Jaskier)\The.Detour.S01E01.The.Pilot.720p.WEB-DL.DD5.1.H.264-Jaskier.mkv
Format                      : Matroska
Format version              : Version 1
File size                   : 716 MiB
Duration                    : 21mn 34s
Overall bit rate            : 4 637 Kbps
Encoded date                : UTC 2016-04-15 19:08:50
Writing application         : mkvmerge v2.3.0 ('Freak U') built on Sep  8 2008 18:32:16
Writing library             : libebml v0.7.7 + libmatroska v0.8.1
DURATION                    : 00:21:29.453000000
NUMBER_OF_FRAMES            : 614
NUMBER_OF_BYTES             : 21509
_STATISTICS_WRITING_APP     : mkvmerge v8.3.0 ('Over the Horizon') 64bit
_STATISTICS_WRITING_DATE_UT : 2016-04-12 10:27:08
_STATISTICS_TAGS            : BPS DURATION NUMBER_OF_FRAMES NUMBER_OF_BYTES
Video
ID                          : 1
Format                      : AVC
Format/Info                 : Advanced Video Codec
Format profile              : High@L3.1
Format settings, CABAC      : No
Format settings, ReFrames   : 2 frames
Codec ID                    : V_MPEG4/ISO/AVC
Duration                    : 21mn 34s
Bit rate                    : 3 969 Kbps
Width                       : 1 280 pixels
Height                      : 720 pixels
Display aspect ratio        : 16:9
Frame rate mode             : Constant
Frame rate                  : 23.976 fps
Color space                 : YUV
Chroma subsampling          : 4:2:0
Bit depth                   : 8 bits
Scan type                   : Progressive
Bits/(Pixel*Frame)          : 0.180
Stream size                 : 613 MiB (86%)
Language                    : English
Default                     : Yes
Forced                      : No
Color range                 : Limited
Color primaries             : BT.709
Transfer characteristics    : BT.709
Matrix coefficients         : BT.709
Audio #1
ID                          : 2
Format                      : AC-3
Format/Info                 : Audio Coding 3
Mode extension              : CM (complete main)
Format settings, Endianness : Big
Codec ID                    : A_AC3
Duration                    : 21mn 34s
Bit rate mode               : Constant
Bit rate                    : 192 Kbps
Channel(s)                  : 2 channels
Channel positions           : Front: L R
Sampling rate               : 48.0 KHz
Compression mode            : Lossy
Stream size                 : 29.6 MiB (4%)
Language                    : Russian
Default                     : Yes
Forced                      : No
Audio #2
ID                          : 3
Format                      : AC-3
Format/Info                 : Audio Coding 3
Mode extension              : CM (complete main)
Format settings, Endianness : Big
Codec ID                    : A_AC3
Duration                    : 21mn 34s
Bit rate mode               : Constant
Bit rate                    : 384 Kbps
Channel(s)                  : 6 channels
Channel positions           : Front: L C R, Side: L R, LFE
Sampling rate               : 48.0 KHz
Compression mode            : Lossy
Stream size                 : 59.3 MiB (8%)
Language                    : English
Default                     : No
Forced                      : No
Text
ID                          : 4
Format                      : UTF-8
Codec ID                    : S_TEXT/UTF8
Codec ID/Info               : UTF-8 Plain Text
Language                    : English
Default                     : Yes
Forced                      : No

Скриншоты



Внимание! Раздача ведётся путём добавления новых серий.

Внимание! Раздача ведётся путём добавления новых серий; при каждом добавлении создётся новый торрент. Чтобы начать докачку новой серии, пользователям необходимо сделать следующее:
  • Остановить скачивание.
  • Удалить старый торрент у себя из клиента (старые серии удалять не надо).
  • Скачать новый торрент и запустить его у себя в клиенте вместо старого, при этом указать клиенту путь в старую папку куда и должно происходить скачивание новых серий.
    Ваш клиент при этом должен произвести хеширование (проверку) старой папки (если не производит сам - помогите ему сделать это), и будет докачивать только те серии которых у вас ещё нет. Старые серии при этом не удаляются, а продолжают раздаваться!
    Eсли вы уже удалили старые серии, то предотвратить повторную закачку старых серий можно, отжав галочку в соответсвующих местах при запуске нового торрента. По возможности, желательно не удалять старые серии как можно дольше чтобы релизёр не столько продолжал раздавать старые серии, а смог сконцентрироваться на новых.

Ссылка на предыдущие и альтернативные раздачи

Вне форума [Профиль] [ЛС]
Показать сообщения:    
Ответить на тему

Текущее время: Сегодня 22:53

Часовой пояс: GMT + 3



Вы не можете начинать темы
Вы не можете отвечать на сообщения
Вы не можете редактировать свои сообщения
Вы не можете удалять свои сообщения
Вы не можете голосовать в опросах
Вы не можете прикреплять файлы к сообщениям
Вы не можете скачивать файлы