Сегодня идет свободное скачивание без начисления Download

В Некотором Царстве / Однажды в сказке / Once Upon a Time / Сезон: 5 / Серии: 1-16 из 22 (Грег Биман, Марк Майлод, Дин Уайт) [2015, фэнтези, приключения, WEB-DLRip] DUB (NevaFilm) + Original + Subs

Ответить на тему
 
Автор
Сообщение

Omen ®

Стаж: 5 лет 11 месяцев

Сообщений: 184329

Торрент-статистика

Пост 30-Апр-2016 12:00

[Цитировать]

--✦ В Некотором Царстве / Однажды в сказке / Once Upon a Time ✦-- Информация о фильме:
✦ Название: Однажды в сказке
✦ Оригинальное название: Once Upon a Time
✦ Год выхода: 2015
✦ Страна: США
✦ Жанр: Фэнтези, приключения
✦ Продолжительность: ~ 00:43:00 серия
✦ Перевод: Дублированный
- NevaFilm-✦ Режиссер: Грег Биман, Марк Майлод, Дин Уайт-✦ В ролях: Дженнифер Моррисон, Джиннифер Гудвин, Лана Парийя, Джошуа Даллас, Джаред Гилмор, Роберт Карлайл, Рафаэль Сбардж, Меган Ори, Эйон Бэйли, Беверли Эллиотт
-Описание фильма: Новые умопомрачительные приключения Эммы Свон, Белоснежки, Прекрасного Принца, Злой Королевы, Крюка, а также других представителей Сказочного Мира. Они привыкают к тому, что ныне Эмма – Темная и принимаются искать Мерлина. Это путешествие перенесет наших героев из Зачарованного Леса в Камелот и преподнесет массу сюрпризов, среди которых знакомство с храброй и упрямой шотландской принцессой по имени Мерида.---- --Информация о файле:
✦ Качество: WEB-DLRip
✦ Формат: AVI
✦ Видео: XviD, 720x400 (16:9), ~1500 kb/s
✦ Аудио Rus: MPEG Layer 3, 48,0 kHz, 2 ch, 128 kb/s — дублированный
✦ Аудио Eng: MPEG Layer 3, 48,0 kHz, 2 ch, 128 kb/s — оригинал
✦ Субтитры: русские, английские (отдельным файлом)

✔ Подготовка релиза

Рип: DriverV
За исходник спасибо BS666

✔ MediaInfo

Код:
Общее
Полное имя : D:\Однажды в сказке (сезон 5) Once Upon a Time (2015) WEBDLRip - Невафильм\Once.Upon.a.Time.S05E01.WEB-DLRip.Rus.Eng.DV.NevaFilm.avi
Формат : AVI
Формат/Информация : Audio Video Interleave
Размер файла : 523 Мбайт
Продолжительность : 41 м.
Общий поток : 1771 Кбит/сек
Программа кодирования : VirtualDubModRus 1.5.10.2 (build 2542/release)
Библиотека кодирования : VirtualDubMod build 2542/release
Видео
Идентификатор : 0
Формат : MPEG-4 Visual
Профиль формата : Advanced Simple@L5
Параметр BVOP формата : 2
Параметр QPel формата : Нет
Параметр GMC формата : Без точки перехода
Параметр матрицы формата : Default (H.263)
Идентификатор кодека : XVID
Идентификатор кодека/Подсказка : XviD
Продолжительность : 41 м.
Битрейт : 1500 Кбит/сек
Ширина : 720 пикселей
Высота : 400 пикселей
Соотношение сторон : 16:9
Частота кадров : 25,000 кадров/сек
Цветовое пространство : YUV
Субдискретизация насыщенности : 4:2:0
Битовая глубина : 8 бит
Тип развёртки : Прогрессивная
Метод сжатия : С потерями
Бит/(Пиксели*Кадры) : 0.208
Размер потока : 443 Мбайт (85%)
Библиотека кодирования : XviD 64
Аудио #1
Идентификатор : 1
Формат : MPEG Audio
Версия формата : Version 1
Профиль формата : Layer 3
Режим : Joint stereo
Расширение режима : MS Stereo
Идентификатор кодека : 55
Идентификатор кодека/Подсказка : MP3
Продолжительность : 41 м.
Вид битрейта : Постоянный
Битрейт : 128 Кбит/сек
Каналы : 2 канала
Частота : 48,0 КГц
Метод сжатия : С потерями
Размер потока : 37,8 Мбайт (7%)
Выравнивание : Разделение по промежуткам
Продолжительность промежутка : 40 мс. (1,00 видеокадр)
Время предзагрузки промежутка : 500 мс.
Аудио #2
Идентификатор : 2
Формат : MPEG Audio
Версия формата : Version 1
Профиль формата : Layer 3
Режим : Joint stereo
Расширение режима : MS Stereo
Идентификатор кодека : 55
Идентификатор кодека/Подсказка : MP3
Продолжительность : 41 м.
Вид битрейта : Постоянный
Битрейт : 128 Кбит/сек
Каналы : 2 канала
Частота : 48,0 КГц
Метод сжатия : С потерями
Размер потока : 37,8 Мбайт (7%)
Выравнивание : Разделение по промежуткам
Продолжительность промежутка : 40 мс. (1,00 видеокадр)
Время предзагрузки промежутка : 500 мс.

✔ Скриншоты


✔ Раздача ведется путем добавления новых серий

Когда раздача ведётся путём добавления новых серий, при каждом добавлении создётся новый торрент. Чтобы начать докачку новой серии, пользователям необходимо сделать следующее:
(1) остановить скачивание,
(2) удалить старый торрент у себя из клиента (старые серии удалять не надо),
(3) скачать новый торрент и запустить его у себя в клиенте вместо старого, при этом указать клиенту путь в старую папку, куда и должно происходить скачивание новых серий.
Ваш клиент при этом должен произвести хеширование (проверку) старой папки (если не производит сам - помогите ему сделать это), и будет докачивать только те серии, которых у вас ещё нет. Старые серии при этом не удаляются, а продолжают раздаваться!
Eсли вы уже удалили старые серии, то предотвратить повторную закачку старых серий можно, отжав галочку в соответсвующих местах при запуске нового торрента. По возможности, желательно не удалять старые серии как можно дольше, чтобы релизёр не столько продолжал раздавать старые серии, а смог сконцентрироваться на новых.
Вне форума [Профиль] [ЛС]
Показать сообщения:    
Ответить на тему

Текущее время: Сегодня 19:53

Часовой пояс: GMT + 3



Вы не можете начинать темы
Вы не можете отвечать на сообщения
Вы не можете редактировать свои сообщения
Вы не можете удалять свои сообщения
Вы не можете голосовать в опросах
Вы не можете прикреплять файлы к сообщениям
Вы не можете скачивать файлы