Сегодня идет свободное скачивание без начисления Download

Инспектор Джордж Джентли / Inspector George Gently / Сезон: 7 / Серии: 1-4 из 4 (Николас Рентон, Билл Андерсон, Тим Уитби, Бен Болт) [2015, драма, криминал, детектив, HDTVRip] VO (DexterTV)

Ответить на тему
 
Автор
Сообщение

Omen ®

Стаж: 5 лет 6 месяцев

Сообщений: 186946

Торрент-статистика

Пост 29-Апр-2016 21:00

[Цитировать]

Инспектор Джордж Джентли / Inspector George Gently-ВЕСЬ 7 СЕЗОН Год выпуска: 2015
Страна: Великобритания
Жанр: драма, криминал, детектив
Продолжительность: ~ 01:28:00
Перевод: Любительский (одноголосый закадровый) DexterTV
Режиссёр: Николас Рентон, Билл Андерсон, Тим Уитби, Бен Болт
В ролях: Мартин Шоу, Ли Инглби, Саймон Хабборд, Лиза МакГриллис, Мелани Кларк Пуллен
Описание: Время действия — вторая половина 1969 года. Старший инспектор Джордж Джентли начинает расследование об изнасиловании проститутки. Тем временем его жизнь в ближайшем будущем может кардинально измениться из-за возникших проблем со здоровьем, и он снова встает перед выбором - уходить ли ему на пенсию.
Сэмпл: http://multi-up.com/1099727
Качество: HDTVRip
Формат: AVI
Видео: XviD, 720x400 [16:9], 25.000 fps, 1113 kbps, 0.127 bit/pixel
Аудио: MP3, 48 kHz, 2 ch, 192 Kbps
Субтитры: отсутствуют

MediaInfo

Format : AVI
Format/Info : Audio Video Interleave
File size : 704 MiB
Duration : 1h 28mn
Overall bit rate : 1 113 Kbps
Writing application : VirtualDubMod 1.5.10.3 | www.virtualdub-fr.org || (build 2550/release)
Writing library : VirtualDub build 35576/release
Video
ID : 0
Format : MPEG-4 Visual
Format profile : Advanced Simple@L5
Format settings, BVOP : 1
Format settings, QPel : No
Format settings, GMC : No warppoints
Format settings, Matrix : Default (MPEG)
Codec ID : XVID
Codec ID/Hint : XviD
Duration : 1h 28mn
Bit rate : 911 Kbps
Width : 720 pixels
Height : 400 pixels
Display aspect ratio : 16:9
Frame rate : 25.000 fps
Color space : YUV
Chroma subsampling : 4:2:0
Bit depth : 8 bits
Scan type : Progressive
Compression mode : Lossy
Bits/(Pixel*Frame) : 0.127
Stream size : 576 MiB (82%)
Writing library : XviD 1.2.1 (UTC 2008-12-04)
Audio
ID : 1
Format : MPEG Audio
Format version : Version 1
Format profile : Layer 3
Mode : Joint stereo
Codec ID : 55
Codec ID/Hint : MP3
Duration : 1h 28mn
Bit rate mode : Constant
Bit rate : 192 Kbps
Channel(s) : 2 channels
Sampling rate : 48.0 KHz
Compression mode : Lossy
Stream size : 121 MiB (17%)
Alignment : Split accross interleaves
Interleave, duration : 40 ms (1.00 video frame)
Interleave, preload duratio : 500 ms

Скриншоты

Вне форума [Профиль] [ЛС]
Показать сообщения:    
Ответить на тему

Текущее время: Сегодня 01:15

Часовой пояс: GMT + 3



Вы не можете начинать темы
Вы не можете отвечать на сообщения
Вы не можете редактировать свои сообщения
Вы не можете удалять свои сообщения
Вы не можете голосовать в опросах
Вы не можете прикреплять файлы к сообщениям
Вы не можете скачивать файлы