Сегодня идет свободное скачивание без начисления Download

Розвелл (Город пришельцев) / Roswell / Сезон: 1 / Серии: 1-22 из 22 (Джейсон Кэтимс) [1999, фантастика, романтика, драма, DVDRemux] MVO (ТВ3)

Ответить на тему
 
Автор
Сообщение

Omen ®

Стаж: 5 лет 9 месяцев

Сообщений: 184433

Торрент-статистика

Пост 26-Апр-2016 21:03

[Цитировать]

Розвелл (Город пришельцев) / Roswell
Год выпуска: 1999
Страна: США
Жанр: фантастика, романтика, драма
Продолжительность: 42
Перевод: Профессиональный (многоголосый закадровый) ТВ3
Режиссёр: Джейсон Кэтимс
В ролях: Шири Эплби, Джэйсон Бэр, Кэтрин Хэйл, Брэндан Фэр, Маджандра Дэлфино, Колин Хэнкс, Уильям Садлер, Ник Вэкслер
Описание: В сериале рассказывается про пришельцев подросткового возраста, живущих среди людей в городе Розвел. Они стараются узнать больше о своих способностях, посколько являются кем-то вроде гибрида человека и пришельца. Попутно они пытаются выяснить, откуда они и как им попасть домой.
В Розвеле переплетаются романтика и научная фантастика, смесь, которая заставляет нас гадать, что будет дальше.
... Случайно застреленную девушку вылечил незнакомец, который оказывается пришельцем. Он и его друзья не знают, кто они и откуда, но понимают, что скорее всего они - потомки пришельцев, оказавшихся в Розвеле после крушения НЛО в 1947 году ...
или
... В 1947 году, в Розвеле произошла авария НЛО. В 1989 году, потомки пришельцев Макс Эванс, Изабель Эванс и Майкл Герин, появились из инкубационных камер, выглядевшие как 6-ти летние человеческие дети. Они были найдены в пустыне и адоптированы приемными родителями. Они вели свою жизнь как все обычные люди на земле, пока в 1999, Лиз Паркер, была застрелена в кафе "Крушение", и Макс, рискуя всем, использует свои способности, чтобы ее исцелить.
С того момента все изменилось ...

Ссылка на предыдущие и альтернативные раздачи

[url=tracker.php?f=189&nm=%E3%EE%F0%EE%E4+%EF%F0%E8%F8%E5%EB%FC%F6%E5%E2]http:///*spam*//forum/tracker.php?f=189&nm...C%F6%E5%E2[/url]
Сэмпл: http://sendfile.su/1228484
Качество: DVDRemux
Формат: MKV
Видео: MPEG 2, PAL, 720х576, 16:9, ~4700 kbps, 25.000 fps
Аудио: русский ac3 48000Hz стерео 192Kbps
Субтитры: Отсутствуют

Список серий

1-я серия. Пилот
2-я серия. На следующее утро
3-я серия. Монстры
4-я серия. Нормальная жизнь
5-я серия. Пропажа
6-я серия. 285 на юг
7-я серия. Ривер дог
8-я серия. Брат по крови
9-я серия. Тепловая волна
10-я серия. Баланс
11-я серия. Игрушечный дом
12-я серия. В лес
13-я серия. Конференция
14-я серия. Свидание в слепую
15-я серия. День независимости
16-я серия. Сексуальное излечение
17-я серия. Сумасшедшая
18-я серия. Тэсс, ложь и видео
19-я серия. Квадрат
20-я серия. Макс по максимуму
21-я серия. Белая комната
22-я серия. Судьба

MediaInfo

Complete name : ............\Roswell s01\Roswell.s01e01.DVDRemux.mkv
Format : Matroska
Format version : Version 4 / Version 2
File size : 1.44 GiB
Duration : 42mn 15s
Overall bit rate mode : Variable
Overall bit rate : 4 884 Kbps
Encoded date : UTC 2016-04-25 16:57:14
Writing application : mkvmerge v8.2.0 ('World of Adventure') 64bit
Writing library : libebml v1.3.1 + libmatroska v1.4.2
Video
ID : 1
Format : MPEG Video
Format version : Version 2
Format profile : Main@Main
Format settings, BVOP : Yes
Format settings, Matrix : Custom
Format settings, GOP : M=3, N=15
Codec ID : V_MPEG2
Codec ID/Info : MPEG 1 or 2 Video
Duration : 42mn 15s
Bit rate mode : Variable
Bit rate : 4 687 Kbps
Maximum bit rate : 7 500 Kbps
Width : 720 pixels
Height : 576 pixels
Display aspect ratio : 16:9
Frame rate mode : Constant
Frame rate : 25.000 fps
Standard : PAL
Color space : YUV
Chroma subsampling : 4:2:0
Bit depth : 8 bits
Scan type : Progressive
Scan order : Top Field First
Compression mode : Lossy
Bits/(Pixel*Frame) : 0.452
Time code of first frame : 00:59:59:00
Time code source : Group of pictures header
GOP, Open/Closed : Open
GOP, Open/Closed of first fram : Closed
Stream size : 1.38 GiB (96%)
Default : Yes
Forced : No
Audio
ID : 2
Format : AC-3
Format/Info : Audio Coding 3
Mode extension : CM (complete main)
Format settings, Endianness : Big
Codec ID : A_AC3
Duration : 42mn 14s
Bit rate mode : Constant
Bit rate : 192 Kbps
Channel(s) : 2 channels
Channel positions : Front: L R
Sampling rate : 48.0 KHz
Frame rate : 31.250 fps (1536 spf)
Compression mode : Lossy
Stream size : 58.0 MiB (4%)
Default : Yes
Forced : No

Скриншоты




Благодарности

За предоставленные DVD диски спасибо уважаемому Kel163
Вне форума [Профиль] [ЛС]
Показать сообщения:    
Ответить на тему

Текущее время: Сегодня 23:26

Часовой пояс: GMT + 3



Вы не можете начинать темы
Вы не можете отвечать на сообщения
Вы не можете редактировать свои сообщения
Вы не можете удалять свои сообщения
Вы не можете голосовать в опросах
Вы не можете прикреплять файлы к сообщениям
Вы не можете скачивать файлы