Сегодня идет свободное скачивание без начисления Download

Инспектор Джордж Джентли / Inspector George Gently / Сезон: 7 / Серии: 1-2 из 4 (Николас Рентон, Билл Андерсон, Тим Уитби, Бен Болт) [2015, драма, криминал, детектив, HDTVRip-AVC] VO (Project Web Mania)

Ответить на тему
 
Автор
Сообщение

Omen ®

Стаж: 5 лет 7 месяцев

Сообщений: 185427

Торрент-статистика

Пост 24-Апр-2016 00:00

[Цитировать]

Инспектор Джордж Джентли / Inspector George Gently
Год выпуска: 2015
Страна: Великобритания
Жанр: драма, криминал, детектив
Продолжительность: ~ 01:28:00
Перевод: Любительский (одноголосый закадровый) Project_Web_Mania
Режиссёр: Николас Рентон, Билл Андерсон, Тим Уитби, Бен Болт
В ролях: Мартин Шоу, Ли Инглби, Саймон Хабборд, Лиза МакГриллис, Мелани Кларк Пуллен
Описание: Время действия — вторая половина 1969 года. Старший инспектор Джордж Джентли начинает расследование об изнасиловании проститутки. Тем временем его жизнь в ближайшем будущем может кардинально измениться из-за возникших проблем со здоровьем, и он снова встает перед выбором - уходить ли ему на пенсию.
Сэмпл: http://multi-up.com/1096775
Качество: HDTVRip
Формат: MKV
Видео: AVC, 832x468; 25,000 кадров/сек; 1400 Кбит/сек
Аудио: AC3, 192 Kbps, 48.0 KHz, 2 channels

MediaInfo

07_сезон_Инспектор_Джордж_Джентли_VO\01_serya_VO.mkv
Формат : Matroska
Версия формата : Version 2
Размер файла : 1007 Мбайт
Продолжительность : 1 ч. 28 м.
Общий поток : 1594 Кбит/сек
Дата кодирования : UTC 2016-03-31 16:28:10
Программа кодирования : mkvmerge v5.0.1 ('Es ist Sommer') built on Oct 9 2011 11:55:43
Библиотека кодирования : libebml v1.2.2 + libmatroska v1.3.0
Видео
Идентификатор : 1
Формат : AVC
Формат/Информация : Advanced Video Codec
Профиль формата : High@L3.0
Параметр CABAC формата : Да
Параметр ReFrames формата : 4 кадра
Идентификатор кодека : V_MPEG4/ISO/AVC
Продолжительность : 1 ч. 28 м.
Битрейт : 1400 Кбит/сек
Ширина : 832 пикс.
Высота : 468 пикс.
Соотношение сторон : 16:9
Частота кадров : 25,000 кадр/сек
Цветовое пространство : YUV
Подвыборка цветности : 4:2:0
Битовая глубина : 8 бит
Тип развёртки : Прогрессивная
Бит/(Пиксели*Кадры) : 0.144
Размер потока : 865 Мбайт (86%)
Библиотека кодирования : x264 core 123 r2189 35cf912
Настройки программы : cabac=1 / ref=3 / deblock=1:0:0 / analyse=0x3:0x133 / me=hex / subme=7 / psy=1 / psy_rd=1.00:0.00 / mixed_ref=1 / me_range=16 / chroma_me=1 / trellis=1 / 8x8dct=1 / cqm=0 / deadzone=21,11 / fast_pskip=1 / chroma_qp_offset=-2 / threads=3 / sliced_threads=0 / nr=0 / decimate=1 / interlaced=0 / bluray_compat=0 / constrained_intra=0 / bframes=3 / b_pyramid=2 / b_adapt=1 / b_bias=0 / direct=1 / weightb=1 / open_gop=0 / weightp=2 / keyint=250 / keyint_min=25 / scenecut=40 / intra_refresh=0 / rc_lookahead=40 / rc=2pass / mbtree=1 / bitrate=1400 / ratetol=1.0 / qcomp=0.60 / qpmin=10 / qpmax=51 / qpstep=4 / cplxblur=20.0 / qblur=0.5 / ip_ratio=1.40 / aq=1:1.00
Аудио
Идентификатор : 2
Формат : AC-3
Формат/Информация : Audio Coding 3
Расширение режима : CM (complete main)
Идентификатор кодека : A_AC3
Продолжительность : 1 ч. 28 м.
Вид битрейта : Постоянный
Битрейт : 192 Кбит/сек
Каналы : 2 канала
Расположение каналов : Front: L R
Частота : 48,0 КГц
Битовая глубина : 16 бит
Метод сжатия : С потерями
Задержка видео : -160 мс.
Размер потока : 121 Мбайт (12%)
Заголовок : VO_Project_Web_Mania
Язык : Russian

Скриншоты

Вне форума [Профиль] [ЛС]
Показать сообщения:    
Ответить на тему

Текущее время: Сегодня 22:52

Часовой пояс: GMT + 3



Вы не можете начинать темы
Вы не можете отвечать на сообщения
Вы не можете редактировать свои сообщения
Вы не можете удалять свои сообщения
Вы не можете голосовать в опросах
Вы не можете прикреплять файлы к сообщениям
Вы не можете скачивать файлы