Сегодня идет свободное скачивание без начисления Download

Винил / Vinyl / Сезон: 1 / Серии: 1-2 из 10 (Мартин Скорсезе / Martin Scorsese) [2016, драма, музыка, HDTVRip] DVO (Кубик в кубе) + Original Eng + Rus Subs

Ответить на тему
 
Автор
Сообщение

Omen ®

Стаж: 5 лет 6 месяцев

Сообщений: 186946

Торрент-статистика

Пост 22-Апр-2016 15:00

[Цитировать]

Винил - Первый сезонVinyl - First Season- Год выпуска: 2016
Страна: США
Жанр: драма, музыка-Продолжительность: 01:00:00
Перевод: Профессиональный (двухголосый закадровый) Кубик в кубе
Режиссёр: Мартин Скорсезе / Martin Scorsese
В ролях: Бобби Каннавале, Пол Бен-Виктор, Пи-Джей Бирн, Макс Казелла, Ато Эссандо, Джеймс Джаггер, Джей-Си МакКензи, Джек Куэйд, Рэй Романо, Биргитта Йорт Сёренсен, Джуно Темпл, Оливия Уайлд и др.-Описание: Главный герой Ричи Финестра рвёт и мечет, чтобы найти новое направление и удержать на плаву свою звукозаписывающую компанию, преодолевая личностный кризис и неурядицы семейной жизни.- -Sample-Релиз: &
Роли озвучивали: Руслан Габидуллин и Ольга Кравцова
Перевод: Trotteville и el_brujo
Работа со звуком: messafan
Рип: whip93-Качество: HDTVRip
Формат: MKV
Видео: x264, 1024x574 (16:9), 23.976 fps, ~2000 kbps
Аудио #1: Russian 48.0 KHz, AC3, 6 channels, 384 Kbps |Кубик в кубе|
Аудио #2: English 48.0 KHz, AC3, 6 channels, 384 Kbps |Original|
Субтитры: русские (Amedia)-

MediaInfo

General
Unique ID : 186635783980302460421904781123390200980 (0x8C68BE97F5152389A9D1DF05701ADC94)
Complete name : F:\Vinyl Season 1 CasStudio.TV\Vinyl.S01E01.HDTVRip.Rus.Eng.CasStudio.TV.mkv
Format : Matroska
Format version : Version 4 / Version 2
File size : 2.24 GiB
Duration : 1h 55mn
Overall bit rate mode : Variable
Overall bit rate : 2 770 Kbps
Movie name : Винил | Vinyl (S01E01) - Release by CasStudio.TV
Encoded date : UTC 2016-04-22 03:19:27
Writing application : mkvmerge v6.1.0 ('Old Devil') built on Mar 4 2013 09:10:42
Writing library : libebml v1.3.0 + libmatroska v1.4.0
Video
ID : 1
Format : AVC
Format/Info : Advanced Video Codec
Format profile : High@L4.1
Format settings, CABAC : Yes
Format settings, ReFrames : 12 frames
Codec ID : V_MPEG4/ISO/AVC
Duration : 1h 55mn
Bit rate mode : Variable
Bit rate : 2 000 Kbps
Maximum bit rate : 64.0 Mbps
Width : 1 024 pixels
Height : 574 pixels
Display aspect ratio : 16:9
Frame rate mode : Constant
Frame rate : 23.976 fps
Color space : YUV
Chroma subsampling : 4:2:0
Bit depth : 8 bits
Scan type : Progressive
Bits/(Pixel*Frame) : 0.142
Stream size : 1.57 GiB (70%)
Title : Encoded by whip93
Writing library : x264 core 142 r2431 ac76440
Encoding settings : cabac=1 / ref=12 / deblock=1:-2:-2 / analyse=0x3:0x113 / me=umh / subme=11 / psy=1 / psy_rd=1.00:0.00 / mixed_ref=1 / me_range=48 / chroma_me=1 / trellis=2 / 8x8dct=1 / cqm=0 / deadzone=21,11 / fast_pskip=0 / chroma_qp_offset=-5 / threads=12 / lookahead_threads=1 / sliced_threads=0 / nr=0 / decimate=1 / interlaced=0 / bluray_compat=0 / constrained_intra=0 / bframes=3 / b_pyramid=2 / b_adapt=2 / b_bias=0 / direct=1 / weightb=1 / open_gop=0 / weightp=2 / keyint=240 / keyint_min=22 / scenecut=40 / intra_refresh=0 / rc_lookahead=60 / rc=2pass / mbtree=1 / bitrate=2000 / ratetol=1.0 / qcomp=0.80 / qpmin=0 / qpmax=69 / qpstep=4 / cplxblur=20.0 / qblur=0.5 / vbv_maxrate=64000 / vbv_bufsize=70000 / nal_hrd=vbr / filler=0 / ip_ratio=1.40 / aq=1:1.00
Language : English
Default : Yes
Forced : No
Color range : Limited
Color primaries : BT.709
Transfer characteristics : BT.709
Matrix coefficients : BT.709
Audio #1
ID : 2
Format : AC-3
Format/Info : Audio Coding 3
Mode extension : CM (complete main)
Format settings, Endianness : Big
Codec ID : A_AC3
Duration : 1h 55mn
Bit rate mode : Constant
Bit rate : 384 Kbps
Channel(s) : 6 channels
Channel positions : Front: L C R, Side: L R, LFE
Sampling rate : 48.0 KHz
Bit depth : 16 bits
Compression mode : Lossy
Stream size : 318 MiB (14%)
Language : Russian
Default : Yes
Forced : No
Audio #2
ID : 3
Format : AC-3
Format/Info : Audio Coding 3
Mode extension : CM (complete main)
Format settings, Endianness : Big
Codec ID : A_AC3
Duration : 1h 55mn
Bit rate mode : Constant
Bit rate : 384 Kbps
Channel(s) : 6 channels
Channel positions : Front: L C R, Side: L R, LFE
Sampling rate : 48.0 KHz
Bit depth : 16 bits
Compression mode : Lossy
Stream size : 318 MiB (14%)
Language : English
Default : No
Forced : No
Text
ID : 4
Format : UTF-8
Codec ID : S_TEXT/UTF8
Codec ID/Info : UTF-8 Plain Text
Language : Russian
Default : No
Forced : No

Скриншоты

Внимание! Раздача ведётся путём добавления новых серий

Внимание! Раздача ведётся путём добавления новых серий; при каждом добавлении создаётся новый торрент. Чтобы начать докачку новой серии, пользователям необходимо сделать следующее:
(1) остановить скачивание,
(2) удалить старый торрент у себя из клиента (старые серии удалять не надо),
(3) скачать новый торрент и запустить его у себя в клиенте вместо старого, при этом указать клиенту путь в старую папку куда и должно происходить скачивание новых серий.
Ваш клиент при этом должен произвести хеширование (проверку) старой папки (если не производит сам - помогите ему сделать это), и будет докачивать только те серии которых у вас ещё нет. Старые серии при этом не удаляются, а продолжают раздаваться!
Eсли вы уже удалили старые серии, то предотвратить повторную закачку старых серий можно, отжав галочку в соответствующих местах при запуске нового торрента. По возможности, желательно не удалять старые серии как можно дольше чтобы релизёр не столько продолжал раздавать старые серии, а смог сконцентрироваться на новых.
-
Вне форума [Профиль] [ЛС]
Показать сообщения:    
Ответить на тему

Текущее время: Сегодня 15:59

Часовой пояс: GMT + 3



Вы не можете начинать темы
Вы не можете отвечать на сообщения
Вы не можете редактировать свои сообщения
Вы не можете удалять свои сообщения
Вы не можете голосовать в опросах
Вы не можете прикреплять файлы к сообщениям
Вы не можете скачивать файлы