Сегодня идет свободное скачивание без начисления Download

Скотт и Бейли / Scott & Bailey / Сезон: 5 / Серии: 1 из 3 (Алекс Калумниос / Alex Kalymnios) [2016, драма, детектив, HDTVRip 720p] Original + Rus Subs (Notabenoid)

Ответить на тему
 
Автор
Сообщение

Omen ®

Стаж: 6 лет 1 месяц

Сообщений: 184308

Торрент-статистика

Пост 20-Апр-2016 21:33

[Цитировать]

Скотт и Бейли / Scott & Bailey Год выпуска: 2016
Страна: Великобритания
Жанр: драма, детектив
Продолжительность: ~ 00:46:00
Перевод: Субтитры (Notabenoid)
Режиссёр: Алекс Калумниос / Alex Kalymnios
В ролях: Лесли Шарп (Дженет Скотт), Сюранн Джонс (Рейчел Бейли), Сэлли Линдси (Элисон Бейли), Джин Лу (Анна Рам), Чарли Уотсон, Пиппа Хэйвуд, Тони Муни, Делрой Браун, Дэвид Прошо
Описание: В новом сезоне отважные женщины-детективы из манчестерской полиции будут расследовать одно дело на протяжении трех серий, что «позволит более подробно и с размахом исследовать самое страшное преступление, с которым когда-либо сталкивались Дженет Скотт и Рейчел Бейли».
После того, как старший инспектор Джил Мюррей уходит в отставку, амбициозная Рейчел возвращается в отдел убийств из отдела нравов полная новых идей и энтузиазма. Она приобрела очень ценный опыт, и теперь жаждет проявить себя.
Рейчел – тот человек, который необходим Дженет и отделу убийств в расследовании жуткого преступления, связанного с интернетом. Пользуясь полученным в отделе нравов доступом, она проникнет в пугающий мир, где люди спокойно обсуждают совершенные убийства и выбирают новые жертвы. В ходе расследования героини выйдут на группу серийных убийц, что приведет к ужасающим последствиям и навсегда изменит их жизнь.
Доп. информация:
Переводчики: nyanya79, Ridcally, AmyBenson, jumay, Podruga
Сэмпл
Качество: HDTVRip 720p
Контейнер: MKV
Видео: AVC, 1280x720 (16x9), 25 fps, ~2077 kbps, ~ 0.09 bit/pixel
Аудио: AC-3, 48 kHz, 2 ch, 384 kbps
Субтитры: русские, английские

Список серий

Серия 1 - Home Fires

MediaInfo

Полное имя : E:\Serials\Scott And Bailey S05 720p\Scott.and.Bailey.S05E01.720p.HDTV.x264-FoV.mkv
Формат : Matroska
Версия формата : Version 4 / Version 2
Размер файла : 815 Мбайт
Продолжительность : 45 м.
Общий поток : 2511 Кбит/сек
Дата кодирования : UTC 2016-04-20 17:25:09
Программа кодирования : mkvmerge v6.7.0 ('Back to the Ground') 64bit built on Jan 8 2014 15:10:52
Библиотека кодирования : Stupid Ocelot
Видео
Идентификатор : 1
Формат : AVC
Формат/Информация : Advanced Video Codec
Профиль формата : High@L4.1
Параметр CABAC формата : Да
Параметр ReFrames формата : 5 кадров
Идентификатор кодека : V_MPEG4/ISO/AVC
Продолжительность : 45 м.
Битрейт : 2077 Кбит/сек
Ширина : 1280 пикселей
Высота : 720 пикселей
Соотношение сторон : 16:9
Режим частоты кадров : Постоянный
Частота кадров : 25,000 кадров/сек
Цветовое пространство : YUV
Субдискретизация насыщенности : 4:2:0
Битовая глубина : 8 бит
Тип развёртки : Прогрессивная
Бит/(Пиксели*Кадры) : 0.090
Размер потока : 674 Мбайт (83%)
Библиотека кодирования : x264 core 148 r2665 a01e339
Настройки программы : opencl=1 / cabac=1 / ref=5 / deblock=1:0:0 / analyse=0x3:0x113 / me=umh / subme=8 / psy=1 / psy_rd=1.00:0.00 / mixed_ref=1 / me_range=16 / chroma_me=1 / trellis=1 / 8x8dct=1 / cqm=0 / deadzone=21,11 / fast_pskip=1 / chroma_qp_offset=-2 / threads=18 / lookahead_threads=3 / sliced_threads=0 / nr=0 / decimate=1 / interlaced=0 / bluray_compat=0 / constrained_intra=0 / bframes=3 / b_pyramid=2 / b_adapt=2 / b_bias=0 / direct=3 / weightb=1 / open_gop=0 / weightp=2 / keyint=250 / keyint_min=25 / scenecut=40 / intra_refresh=0 / rc_lookahead=50 / rc=crf / mbtree=1 / crf=18.0 / qcomp=0.60 / qpmin=0 / qpmax=69 / qpstep=4 / ip_ratio=1.40 / aq=1:1.00
Язык : English
Default : Да
Forced : Нет
Цветовой диапазон : Limited
Коэффициенты матрицы : BT.709
Аудио
Идентификатор : 2
Формат : AC-3
Формат/Информация : Audio Coding 3
Расширение режима : CM (complete main)
Параметр Endianness формата : Big
Идентификатор кодека : A_AC3
Продолжительность : 45 м.
Вид битрейта : Постоянный
Битрейт : 384 Кбит/сек
Каналы : 2 канала
Расположение каналов : Front: L R
Частота : 48,0 КГц
Метод сжатия : С потерями
Размер потока : 125 Мбайт (15%)
Default : Да
Forced : Нет
Текст #1
Идентификатор : 3
Формат : ASS
Идентификатор кодека : S_TEXT/ASS
Идентификатор кодека/Информация : Advanced Sub Station Alpha
Метод сжатия : Без потерь
Заголовок : Notabenoid
Язык : Russian
Default : Да
Forced : Нет
Текст #2
Идентификатор : 4
Формат : UTF-8
Идентификатор кодека : S_TEXT/UTF8
Идентификатор кодека/Информация : UTF-8 Plain Text
Заголовок : Original
Язык : English
Default : Нет
Forced : Нет

Скриншоты


Образец субтитров

1
00:01:02,040 --> 00:01:03,310
Алло.
2
00:01:14,635 --> 00:01:16,635
Я отойду на минутку?
3
00:01:17,000 --> 00:01:18,760
Ладно.
4
00:01:24,860 --> 00:01:27,060
Ты мне подарочек привезла?
5
00:01:28,800 --> 00:01:30,702
Отлично выглядишь!
6
00:01:30,728 --> 00:01:32,768
Ты тоже. Ну...
7
00:01:34,800 --> 00:01:37,430
Где ты этого монстра откопала?
8
00:01:37,480 --> 00:01:39,150
Она замечательная, эта Анна.
9
00:01:39,401 --> 00:01:40,432
Серьезно?
10
00:01:40,458 --> 00:01:41,815
Рейчел?
11
00:01:41,841 --> 00:01:43,429
- Да.
- Я так и подумала.
12
00:01:43,455 --> 00:01:47,951
- Привет.
- Я вам только что звонила.
Дженет на выезде в Хьюлме, поножовщина.
13
00:01:47,977 --> 00:01:49,859
Она сказала, я должна отвезти
вас туда, как только придете.
14
00:01:49,885 --> 00:01:51,635
Она была не уверена, когда именно.
15
00:01:52,086 --> 00:01:54,086
Поздно легли?
16
00:01:54,274 --> 00:01:55,944
Простите, я там сидела.
17
00:01:56,994 --> 00:01:58,934
Вернусь через минуту.
18
00:02:00,738 --> 00:02:03,854
Значит, Лондон. И как оно?
Вне форума [Профиль] [ЛС]
Похожие темы
Форум Тема Автор Торрент Отв. Посл. сообщение
./templates/default/images/folder_dl.gif Философия, Религия, Эзотерика Скотт Адамс | Осколки Бога (2001) [FB2] }{@R0N
1 | 0

0 | 839

0

2016-10-24 22:28
}{@R0N Последнее
Показать сообщения:    
Ответить на тему

Текущее время: Сегодня 23:46

Часовой пояс: GMT + 3



Вы не можете начинать темы
Вы не можете отвечать на сообщения
Вы не можете редактировать свои сообщения
Вы не можете удалять свои сообщения
Вы не можете голосовать в опросах
Вы не можете прикреплять файлы к сообщениям
Вы не можете скачивать файлы