Сегодня идет свободное скачивание без начисления Download

Девочки / Girls / Сезон: 05 / Серии: 1-10 из 10 (Лина Данэм, Джоди Ли Лайпс, Ричард Шепард) [2016, Драма, комедия, WEB-DL 1080p] MVO (Amedia)

Ответить на тему
 
Автор
Сообщение

Omen ®

Стаж: 6 лет 1 месяц

Сообщений: 184308

Торрент-статистика

Пост 19-Апр-2016 21:00

[Цитировать]

Девочки / Girls
Год выпуска: 2016
Страна: США
Жанр: Драма, комедия
Продолжительность: 00:30:00
Перевод: Профессиональный (многоголосый закадровый) Amedia
Режиссёр: Лина Данэм, Джоди Ли Лайпс, Ричард Шепард
В ролях: Лена Данэм, Эллисон Вильямс, Джемима Кирк, Зося Мамет, Адам Драйвер
Описание: Комедия рассказывает о нескольких девушках двадцатилетнего возраста, которым приходится испытывать унижения и лишь изредка знавать вкус победы.
Сэмпл
Качество: WEB-DL 1080p
Контейнер: MKV
Видео: 1920x1080p, 25.000 fps, x264, ~5000 Kbps, 0.096 bit/pixel
Аудио: AC3, 48 KHz, 5.1, 384 Kbps, - Rus
Аудио 2: AC3, 48 KHz, 5.1, 384 Kbps, - Eng
Субтитры: Russian, English

MediaInfo

Общее
Уникальный идентификатор : 228638873448988234590058538258133100913 (0xAC023ECAD7C843638C0711D534832971)
Полное имя : Z:\Films\Girls.S05.1080p\Girls.S05E01.mkv
Формат : Matroska
Версия формата : Version 4 / Version 2
Размер файла : 1,14 Гбайт
Продолжительность : 27 м.
Общий поток : 6000 Кбит/сек
Название фильма : Girls.S05E01.Wedding.Day.1080p.HDTV.DD5.1.H264-CasStudio
Дата кодирования : UTC 2016-02-22 14:36:03
Программа кодирования : mkvmerge v8.9.0 ('Father Daughter') 64bit
Библиотека кодирования : libebml v1.3.3 + libmatroska v1.4.4
DURATION : 00:26:50.113000000
NUMBER_OF_FRAMES : 603
NUMBER_OF_BYTES : 24566
_STATISTICS_WRITING_APP : mkvmerge v8.9.0 ('Father Daughter') 64bit
_STATISTICS_WRITING_DATE_UTC : 2016-02-22 14:36:03
_STATISTICS_TAGS : BPS DURATION NUMBER_OF_FRAMES NUMBER_OF_BYTES
Видео
Идентификатор : 1
Формат : AVC
Формат/Информация : Advanced Video Codec
Профиль формата : High@L4.1
Параметр CABAC формата : Да
Параметр ReFrames формата : 4 кадра
Идентификатор кодека : V_MPEG4/ISO/AVC
Продолжительность : 27 м.
Битрейт : 5000 Кбит/сек
Ширина : 1920 пикселей
Высота : 1080 пикселей
Соотношение сторон : 16:9
Режим частоты кадров : Постоянный
Частота кадров : 25,000 кадров/сек
Цветовое пространство : YUV
Субдискретизация насыщенности : 4:2:0
Битовая глубина : 8 бит
Тип развёртки : Прогрессивная
Бит/(Пиксели*Кадры) : 0.096
Размер потока : 941 Мбайт (81%)
Библиотека кодирования : x264 core 142 r2491 24e4fed
Настройки программы : cabac=1 / ref=3 / deblock=1:1:-1 / analyse=0x3:0x133 / me=umh / subme=9 / psy=1 / psy_rd=1.00:0.00 / mixed_ref=1 / me_range=48 / chroma_me=1 / trellis=2 / 8x8dct=1 / cqm=0 / deadzone=21,11 / fast_pskip=0 / chroma_qp_offset=-2 / threads=48 / lookahead_threads=5 / sliced_threads=0 / slices=4 / nr=0 / decimate=1 / interlaced=0 / bluray_compat=0 / constrained_intra=0 / bframes=6 / b_pyramid=2 / b_adapt=2 / b_bias=0 / direct=3 / weightb=1 / open_gop=0 / weightp=2 / keyint=250 / keyint_min=22 / scenecut=40 / intra_refresh=0 / rc_lookahead=50 / rc=2pass / mbtree=1 / bitrate=5000 / ratetol=1.0 / qcomp=0.70 / qpmin=10 / qpmax=49 / qpstep=4 / cplxblur=20.0 / qblur=0.5 / vbv_maxrate=9000 / vbv_bufsize=2500 / nal_hrd=none / filler=0 / ip_ratio=1.40 / aq=1:1.00
Язык : English
Default : Да
Forced : Нет
DURATION : 00:27:06.000000000
NUMBER_OF_FRAMES : 40650
NUMBER_OF_BYTES : 1010758247
_STATISTICS_WRITING_APP : mkvmerge v8.9.0 ('Father Daughter') 64bit
_STATISTICS_WRITING_DATE_UTC : 2016-02-22 14:36:03
_STATISTICS_TAGS : BPS DURATION NUMBER_OF_FRAMES NUMBER_OF_BYTES
Аудио #1
Идентификатор : 2
Формат : AC-3
Формат/Информация : Audio Coding 3
Расширение режима : CM (complete main)
Параметр Endianness формата : Big
Идентификатор кодека : A_AC3
Продолжительность : 27 м.
Вид битрейта : Постоянный
Битрейт : 640 Кбит/сек
Каналы : 6 каналов
Расположение каналов : Front: L C R, Side: L R, LFE
Частота : 48,0 КГц
Битовая глубина : 16 бит
Метод сжатия : С потерями
Размер потока : 124 Мбайт (11%)
Заголовок : DD 5.1 @ 640 Kbps - Amedia
Язык : Russian
Default : Да
Forced : Нет
Аудио #2
Идентификатор : 3
Формат : AC-3
Формат/Информация : Audio Coding 3
Расширение режима : CM (complete main)
Параметр Endianness формата : Big
Идентификатор кодека : A_AC3
Продолжительность : 27 м.
Вид битрейта : Постоянный
Битрейт : 384 Кбит/сек
Каналы : 6 каналов
Расположение каналов : Front: L C R, Side: L R, LFE
Частота : 48,0 КГц
Битовая глубина : 16 бит
Метод сжатия : С потерями
Размер потока : 74,4 Мбайт (6%)
Заголовок : DD 5.1 @ 384 Kbps - Original
Язык : English
Default : Нет
Forced : Нет
Текст #1
Идентификатор : 4
Формат : UTF-8
Идентификатор кодека : S_TEXT/UTF8
Идентификатор кодека/Информация : UTF-8 Plain Text
Язык : Russian
Default : Нет
Forced : Нет
Текст #2
Идентификатор : 5
Формат : UTF-8
Идентификатор кодека : S_TEXT/UTF8
Идентификатор кодека/Информация : UTF-8 Plain Text
Заголовок : CC
Язык : English
Default : Нет
Forced : Нет

Скриншоты

Вне форума [Профиль] [ЛС]
Похожие темы
Форум Тема Автор Торрент Отв. Посл. сообщение
./templates/default/images/folder_sticky.gif Ролики, сайт рипы Реально пьяные Девочки (33 эпизода).Drunk Sex, All Sex,Group sex, CamRip] Fanatik
1 | 1

0 | 3108

124

2016-03-09 17:33
Fanatik Последнее
Показать сообщения:    
Ответить на тему

Текущее время: Сегодня 17:57

Часовой пояс: GMT + 3



Вы не можете начинать темы
Вы не можете отвечать на сообщения
Вы не можете редактировать свои сообщения
Вы не можете удалять свои сообщения
Вы не можете голосовать в опросах
Вы не можете прикреплять файлы к сообщениям
Вы не можете скачивать файлы