Сегодня идет свободное скачивание без начисления Download

Настоящий детектив / True detective / Сезон: 1 / Серии: 1-8 из 8 (Кэри Фукунага) [2014, детектив, криминал, драма, BDRip] Original + Rus Subs

Ответить на тему
 
Автор
Сообщение

Omen ®

Стаж: 5 лет 6 месяцев

Сообщений: 186946

Торрент-статистика

Пост 18-Апр-2016 15:33

[Цитировать]

Настоящий детектив / True detective
Год выпуска: 2014
Страна: США
Жанр: детектив, криминал, драма
Продолжительность: ~ 01:00:00
Перевод: Субтитры
Режиссёр: Кэри Фукунага
В ролях: Мэттью МакКонахи, Вуди Харрельсон, Мишель Монахэн, Брюс Эллиотт, Рендал Гонсалес, Тори Киттлз, Дэвид Стивен Митчелл, Майкл Поттс, Эрик Прайс, Мэдисон Вульф
Описание: 2012 год. Бывших детективов Мартина Харта (Харрельсон) и Растина Хоула (МакКонахи) приглашают в полицию, и просят рассказать о расследовании, которое они вместе вели 17 лет назад. Очень скоро становится ясно – следователей интересует что-то другое...
Доп. информация: Оригинальная аудиодорожка и авторские русские субтитры - версия сериала для тех, кто хочет слышать настоящие голоса актеров, но еще не всегда может сам переводить на слух. (В субтитрах сделана попытка дать точный перевод, а также уменьшить количество нецензурной лексики до возможного минимума).
Создатель и автор сценария — Ник Пиццолатто.
Великолепный сценарий, замечательная работа режиссера и операторов, неподражаемая игра актеров.
Сэмпл: http://sendfile.su/1225674
Качество: BDRip
Формат: MKV
Видео: XviD Width: 720 pixels Height 400 pixels : 23.976 (23976/1000) fp 16:9 1 370 Kbps
Аудио: A_AC3 48.0 KHz 2 channels 192 Kbps
Субтитры: Русские

Список серий

01 - The Long Bright Dark
02 - Seeing Things
03 - The Locked Room
04 - Who Goes There
05 - The Secret Fate of All Life
06 - Haunted Houses
07 - After You've Gone
08 - Form and Void

MediaInfo

General
Unique ID : 177439455247855043388910276281626531796 (0x857D98949EB4469DB4A027F0F54017D4)
Complete name : F:\Скачки\True.Detective_season 1\True.Detective.S01E04.BDRip.Eng.[qqss44].mkv
Format : Matroska
Format version : Version 1
File size : 650 MiB
Duration : 57mn 3s
Overall bit rate : 1 593 Kbps
Movie name : True Detective Disc 1
Encoded date : UTC 2016-04-18 11:31:15
Writing application : mkvmerge v2.5.3 ('Boogie') built on Mar 7 2009 15:00:41
Writing library : libebml v0.7.7 + libmatroska v0.8.1
Video
ID : 1
Format : MPEG-4 Visual
Format profile : Advanced Simple@L5
Format settings, BVOP : 2
Format settings, QPel : No
Format settings, GMC : No warppoints
Format settings, Matrix : Default (H.263)
Codec ID : V_MS/VFW/FOURCC / XVID
Codec ID/Hint : XviD
Duration : 57mn 3s
Bit rate : 1 370 Kbps
Width : 720 pixels
Height : 400 pixels
Display aspect ratio : 16:9
Frame rate mode : Constant
Frame rate : 23.976 (23976/1000) fps
Color space : YUV
Chroma subsampling : 4:2:0
Bit depth : 8 bits
Scan type : Progressive
Compression mode : Lossy
Bits/(Pixel*Frame) : 0.198
Stream size : 559 MiB (86%)
Writing library : XviD 73
Default : Yes
Forced : No
Audio
ID : 2
Format : AC-3
Format/Info : Audio Coding 3
Mode extension : CM (complete main)
Format settings, Endianness : Big
Codec ID : A_AC3
Duration : 57mn 3s
Bit rate mode : Constant
Bit rate : 192 Kbps
Channel(s) : 2 channels
Channel positions : Front: L R
Sampling rate : 48.0 KHz
Frame rate : 31.250 fps (1536 spf)
Compression mode : Lossy
Stream size : 78.4 MiB (12%)
Default : Yes
Forced : No
Text
ID : 3
Format : UTF-8
Codec ID : S_TEXT/UTF8
Codec ID/Info : UTF-8 Plain Text
Default : Yes
Forced : No

Скриншоты



Вне форума [Профиль] [ЛС]
Показать сообщения:    
Ответить на тему

Текущее время: Сегодня 18:40

Часовой пояс: GMT + 3



Вы не можете начинать темы
Вы не можете отвечать на сообщения
Вы не можете редактировать свои сообщения
Вы не можете удалять свои сообщения
Вы не можете голосовать в опросах
Вы не можете прикреплять файлы к сообщениям
Вы не можете скачивать файлы