Сегодня идет свободное скачивание без начисления Download

Том и Джерри / Tom And Jerry / Серии: 134, 136-161 из 161 (Чак Джонс / Chuck Jones) [1965-1967, США, Приключения, комедия, DVB] MVO (Рен ТВ)

Ответить на тему
 
Автор
Сообщение

Omen ®

Стаж: 4 года 10 месяцев

Сообщений: 190643

Торрент-статистика

Пост 17-Апр-2016 21:00

[Цитировать]

Том и Джерри / Tom And Jerry- Страна: США
Жанр: Приключения, комедия
Продолжительность: 00:05:30
Года выпуска: 1965-1967
Перевод: Профессиональный (многоголосый закадровый) [Рен ТВ]
Субтитры: Отсутствуют
Русские субтитры: нет
Режиссёр: Чак Джонс / Chuck Jones
Описание: Кот Том и мышонок Джерри - парочка, прославившаяся на весь мир. Уже несколько десятков лет Том гоняется за Джерри с неослабевающим азартом. Том придумывает всё новые и новые хитроумные уловки, чтобы поймать Джерри, но мышонок всё время выкручивается с не меньшей изобретательностью.-Семпл-Качество: DVB
Формат: TS
Видео: AVC, 720x576, 25.000 fps, ~ 3.000 Kbps
Аудио: MP2, 48.0 KHz, 2 ch, 256 Kbps

Список серий

134. Ah, Sweet Mouse-Story Of Life / Умный маленький мышонок (1965)
136. Bad Day At Cat Rock / Кошки-мышки на стройплощадке (1965)
137. The Brothers Carry-Mouse-Off / Кто же так ловит мышей? (1966)
138. Haunted Mouse / Вот такие фокусы (1965)
139. I’m Just Wild About Jerry / Ай, да Джерри (1965)
140. Of Feline Bondage / Мышь-невидимка (1965)
141. The Year Of The Mouse / Доигрались (1965)
142. The Cat’s Me-Ouch / Маленький, да удаленький (1965)
143. Duel Personality / Дуэль (1966)
144. Jerry, Jerry, Quite Contrary / Джерри-лунатик (1966)
145. Jerry Go Round / Цирк приехал (1965)
146. Love Me Love My Mouse / Ценный подарок (1966)
147. Puss’n’Boats / В порту (1966)
148. Filet Meow / Рыбки хочется (1966)
149. Matinee Mouse / Перемирие (1966)
150. The A-Tom-Inable Snowman / Дикий снежный кот (1966)
151. Catty-Cornered / Меж двух огней (1966)
152. Cat And Dupli-Cat / Странный двойник (1967)
153. O-Solar-Meow / Погоня в космосе (1966)
154. Guided Mouse-Ille / Электрический мышонок (1966)
155. Rock N Rodent / Мышонок-музыкант (1967)
156. Cannery Rodent / Вот так делают консервы (1967)
157. The Mouse From H / Мышонок - суперагент (1967)
158. Surf-Bored Cat / Катание на волнах (1967)
159. Shutter Bugged Cat / Кот скрытой камерой (1967)
160. Advance And Be Mechanozed / В эпоху роботов (1967)
161. Purr-Chance To Dream / Такое и во сне не приснится (1967)

Подробные технические данные

GeneralID : 1 (0x1)Complete name : D:\IPTV\Том и Джерри (Рен ТВ)\134.История жизни милого мышонка.Ah,Sweet Mouse-Story Of Life.(1965).tsFormat : MPEG-TSFile size : 158 MiBDuration : 5mn 30sOverall bit rate mode : VariableOverall bit rate : 4 006 Kbps
VideoID : 67 (0x43)Menu ID : 1 (0x1)Format : AVCFormat/Info : Advanced Video CodecFormat profile : High@L3Format settings, CABAC : YesFormat settings, ReFrames : 3 framesFormat settings, GOP : M=4, N=28Codec ID : 27Duration : 5mn 30sBit rate : 3 549 KbpsWidth : 720 pixelsHeight : 576 pixelsDisplay aspect ratio : 4:3Frame rate : 25.000 fpsStandard : ComponentColor space : YUVChroma subsampling : 4:2:0Bit depth : 8 bitsScan type : InterlacedScan type, store method : Separated fieldsScan order : Top Field FirstBits/(Pixel*Frame) : 0.342Stream size : 140 MiB (89%)Color range : LimitedColor primaries : BT.601 PALTransfer characteristics : BT.470 System B, BT.470 System GMatrix coefficients : BT.601
AudioID : 68 (0x44)Menu ID : 1 (0x1)Format : MPEG AudioFormat version : Version 1Format profile : Layer 2Codec ID : 3Duration : 5mn 30sBit rate mode : ConstantBit rate : 256 KbpsChannel(s) : 2 channelsSampling rate : 48.0 KHzCompression mode : LossyStream size : 10.1 MiB (6%)Language : English

Скриншоты

Вне форума [Профиль] [ЛС]
Похожие темы
Форум Тема Автор Торрент Отв. Посл. сообщение
./templates/default/images/folder_dl.gif Обучающее видео Сергей Брежнев | Мастер-класс по работе с цветом и тонировке (2014) PCRec (H.264) Omen
1 | 0

0 | 1960

49

2014-10-19 12:32
Omen Последнее
Показать сообщения:    
Ответить на тему

Текущее время: Сегодня 15:21

Часовой пояс: GMT + 3



Вы не можете начинать темы
Вы не можете отвечать на сообщения
Вы не можете редактировать свои сообщения
Вы не можете удалять свои сообщения
Вы не можете голосовать в опросах
Вы не можете прикреплять файлы к сообщениям
Вы не можете скачивать файлы