Сегодня идет свободное скачивание без начисления Download

Девушка по вызову /The Girlfriend Experience / Сезон: 1 / Серии: 13 из 13 (Лодж Х. Керриган, Эми Саймец) [2016, драма, WEBRip 720p] MVO (Gears Media) + Original

Ответить на тему
 
Автор
Сообщение

Omen ®

Стаж: 5 лет 6 месяцев

Сообщений: 186946

Торрент-статистика

Пост 17-Апр-2016 03:00

[Цитировать]

Девушка по вызову / The Girlfriend Experience
Год выпуска: 2016
Страна: США
Жанр: драма
Продолжительность: ~ 00:25:00
Перевод: Профессиональный (двухголосый закадровый)[Gears Media]
Режиссёр: Лодж Х. Керриган, Эми Саймец
В ролях: Райли Кио, Пол Спаркс, Брайони Гласско, Мэри Линн Райскаб, Сугит Варухесе, Майкл Терриоль, Сабрин Рок, Кейт Хьюлетт, Дженни Рэйвен, Александра Кастилло и др.
Описание:
Студентка юридического факультета Кристин погружается в новый для нее мир эскорта исключительно из прагматических соображений. Но она оказывается не готова к трудностям, которые выпадают на долю тех, кто ведет двойную жизнь.
Сэмпл: http://multi-up.com/1097746
Качество: WEBRip 720p
Формат: MKV
Видео: x264, 1276x716 (16:9), 23,976 fps, ~4500 kbps
Аудио1: Russian, AC3, 48 kHz, 2 ch, 384 kbps
Аудио2: English, AAC, 48 kHz, 2 ch, 125 kbps
Субтитры: нет

MediaInfo

Format : Matroska
Format version : Version 4 / Version 2
File size : 1 017 MiB
Duration : 29mn 59s
Overall bit rate : 4 742 Kbps
Encoded date : UTC 2016-04-15 22:59:47
Writing application : mkvmerge v9.0.1 ('Obstacles') 64bit
Writing library : libebml v1.3.3 + libmatroska v1.4.4
Video
ID : 1
Format : AVC
Format/Info : Advanced Video Codec
Format profile : High@L4.1
Format settings, CABAC : Yes
Format settings, ReFrames : 4 frames
Format settings, GOP : M=3, N=48
Codec ID : V_MPEG4/ISO/AVC
Duration : 29mn 58s
Bit rate mode : Constant
Bit rate : 4 231 Kbps
Nominal bit rate : 4 500 Kbps
Width : 1 276 pixels
Height : 716 pixels
Display aspect ratio : 16:9
Frame rate mode : Constant
Frame rate : 23.976 (24000/1001) fps
Color space : YUV
Chroma subsampling : 4:2:0
Bit depth : 8 bits
Scan type : Progressive
Bits/(Pixel*Frame) : 0.193
Stream size : 907 MiB (89%)
Default : Yes
Forced : No
Color range : Limited
Color primaries : BT.709
Transfer characteristics : BT.709
Matrix coefficients : BT.709
Audio #1
ID : 2
Format : AC-3
Format/Info : Audio Coding 3
Mode extension : CM (complete main)
Format settings, Endianness : Big
Codec ID : A_AC3
Duration : 29mn 59s
Bit rate mode : Constant
Bit rate : 384 Kbps
Channel(s) : 2 channels
Channel positions : Front: L R
Sampling rate : 48.0 KHz
Frame rate : 31.250 fps (1536 spf)
Compression mode : Lossy
Stream size : 82.4 MiB (8%)
Title : Gears Media
Language : Russian
Default : Yes
Forced : Yes
Audio #2
ID : 3
Format : AAC
Format/Info : Advanced Audio Codec
Format profile : LC
Codec ID : A_AAC
Duration : 29mn 59s
Bit rate : 125 Kbps
Channel(s) : 2 channels
Channel positions : Front: L R
Sampling rate : 48.0 KHz
Frame rate : 46.875 fps (1024 spf)
Compression mode : Lossy
Stream size : 26.9 MiB (3%)
Language : English
Default : No
Forced : No

Скриншоты

Внимание! Раздача ведётся путём добавления новых серий

Внимание! Раздача ведётся путём добавления новых серий; при каждом добавлении создётся новый торрент. Чтобы начать докачку новой серии, пользователям необходимо сделать следующее:
(1) остановить скачивание,
(2) удалить старый торрент у себя из клиента (старые серии удалять не надо),
(3) скачать новый торрент и запустить его у себя в клиенте вместо старого, при этом указать клиенту путь в старую папку куда и должно происходить скачивание новых серий.
Ваш клиент при этом должен произвести хеширование (проверку) старой папки (если не производит сам - помогите ему сделать это), и будет докачивать только те серии которых у вас ещё нет. Старые серии при этом не удаляются, а продолжают раздаваться!
Eсли вы уже удалили старые серии, то предотвратить повторную закачку старых серий можно, отжав галочку в соответсвующих местах при запуске нового торрента. По возможности, желательно не удалять старые серии как можно дольше чтобы релизёр не столько продолжал раздавать старые серии, а смог сконцентрироваться на новых.
Вне форума [Профиль] [ЛС]
Похожие темы
Форум Тема Автор Торрент Отв. Посл. сообщение
./templates/default/images/folder_dl.gif Обучающее видео Алекс Мэй | Как организовать секс с двумя девушками (2011) CamRip Omen
1 | 0

0 | 779

75

2015-05-19 18:27
Omen Последнее
Показать сообщения:    
Ответить на тему

Текущее время: Сегодня 03:56

Часовой пояс: GMT + 3



Вы не можете начинать темы
Вы не можете отвечать на сообщения
Вы не можете редактировать свои сообщения
Вы не можете удалять свои сообщения
Вы не можете голосовать в опросах
Вы не можете прикреплять файлы к сообщениям
Вы не можете скачивать файлы