Сегодня идет свободное скачивание без начисления Download

Тучи над холмами / Saka no ue no kumo (Такаши Исшики, Такеши Шибата / Takashi Isshiki, Takeshi Shibata) (13 / 13) [2009-2011, Япония, военный, драма, HDTVRip 1080p] AVO (А.Дольский) + Sub Eng

Ответить на тему
 
Автор
Сообщение

Omen ®

Стаж: 5 лет 7 месяцев

Сообщений: 185412

Торрент-статистика

Пост 15-Апр-2016 21:00

[Цитировать]

Тучи над холмами / Saka no ue no kumo
Страна: Япония
Студия: NHK
Жанр: военный, драма
Год выпуска: 2009-2011
Продолжительность: 13х01:29:00
Перевод: Авторский (одноголосый закадровый) А.Дольский
Cубтитры: английские
Оригинальная аудиодорожка: японский
Режиссер: Такаши Исшики, Такеши Шибата / Takashi Isshiki, Takeshi Shibata
В ролях: Широ Ито, Такако Мацу, Юкиёси Одзава, Кейко Такешита, Кенджи Ватанабе, Хироши Абе, Олегар Федоро, Эндрю Форбс, Такахиро Фуджимото, Джулиан Гловер, Марина Александрова, Александр Иванов, Артем Григорьев.
Описание: Совместный русско-японский проект, идея которого зародилась в Японии в связи с 105-летием русско-японской войны 1904-1905 гг. Производством сериала занималась японская телевизионная корпорация NHK, и в нем приняли участие как японские, так и российские актеры. Русско-японская война не является популярной темой в российском кино, и это вполне понятно, поскольку ее результаты были сочтены позором для Российской империи, которая не смогла справиться с достаточно скромной в то время Японией. Однако японцы всегда относились серьезно к своей истории, тем более, что это была единственная победоносная война с европейским государством. В основу сериала лег роман известного японского писателя-историка Сиба Рётаро под названием «Тучи над холмами». Действие сериала разворачивается во времена эпохи Мэйдзи - бурного периода модернизации Японии второй половины XIX - начала XX вв. - и посвящено судьбам двух японских военных, братьев Акияма - Санэюки и Ёсифуру, принимавших участие в русско-японской войне 1904–1905 гг. При этом они показаны отнюдь не гениальными или особо одаренными людьми, а, напротив, вполне обыкновенными жителями своей страны, которые благодаря патриотизму и упорству добиваются своих целей.Особое место в сериале занимает сюжетная линия героями которой стали японский морской офицер Хиросэ Такэо и петербургская аристократка Ариадна (ее роль исполняет Марина Александрова). Это история любви людей двух разных культур, разделенных многими тысячами верст, а после начала военных действий еще и оказавшихся по разные стороны фронта...

Список серий

01. Юность нации / Shonen no kuni-2009
02. Великие амбиции / Sei-un-2009
03. Взбудораженная нация / Kokka Meido-2009
04. Китайско-японская война / Nisshin Kaisen-2009
05. Студент по обмену / Ryugakusei-2009
06. Англо-японский альянс / Nichiei doumei-2010
07. Смерть Шики / Shiki, iku-2010
08. Развязывание Русско-японской войны / Nichiro kaisen-2010
09. Смерть Хироси / Hirose, shisu-2010
10. Всеобщая атака на Порт-Артур / Ryojun so-ko-geki-2011
11. Высота 203 метра / 203 kochi-2011
12. Прибытие вражеского флота / Tekikan Miyu-2011
13. Битва при Цусиме / Nihon Kai Kaisen-2011
Доп. информация: За перевод Дольского спасибо пользователям: MeGUI, KpucTo161, feldeger, Guyver, dunhill200, AVO-Detector, zweryga, ZeRoNe, WhiteHorse, aleksandrn70, Dr. Destructo, dedmozor. Автор сборки MeGUI.
Релиз:
Сэмпл: http://sendfile.su/1224779

Тип релиза: HDTVRip 1080p
Контейнер: MKV
Видео: MPEG-4 AVC / 8530 kbps / 1920x1080 / 29,970 fps / 16:9 /
Аудио 1: Russian AC3; 224 Kbps; 2 ch; 48 khz
Аудио 2: Japanese AC3; 224 Kbps; 2 ch; 48 khz

MediaInfo

Формат : Matroska
Версия формата : Version 2
Размер файла : 5,58 Гбайт
Продолжительность : 1 ч. 29 м.
Общий поток : 8976 Кбит/сек
Название фильма : Тучи над холмами / Saka no Ue no Kumo (2009-2011) / 01.Shonen no kuni.2009 Release for HDtracker& MeGUI
Дата кодирования : UTC 2012-12-05 11:23:38
Программа кодирования : mkvmerge v3.4.0 ('Rapunzel') сборка от May 15 2010 09:38:20
Библиотека кодирования : libebml v0.8.0 + libmatroska v0.9.0
Видео
Идентификатор : 1
Формат : AVC
Формат/Информация : Advanced Video Codec
Профиль формата : High@L4
Параметр CABAC формата : Да
Параметр ReFrames формата : 4 кадра
Идентификатор кодека : V_MPEG4/ISO/AVC
Продолжительность : 1 ч. 29 м.
Битрейт : 8530 Кбит/сек
Ширина : 1920 пикселей
Высота : 1080 пикселей
Соотношение сторон : 16:9
Режим частоты кадров : Постоянный
Частота кадров : 29,970 кадров/сек
Цветовое пространство : YUV
Субдискретизация насыщенности : 4:2:0
Битовая глубина : 8 бит
Тип развёртки : Прогрессивная
Бит/(Пиксели*Кадры) : 0.137
Размер потока : 5,19 Гбайт (93%)
Библиотека кодирования : x264 core 116 r2074 2641b9e
Настройки программы : cabac=1 / ref=4 / deblock=1:-3:-3 / analyse=0x3:0x113 / me=umh / subme=11 / psy=1 / psy_rd=1.00:0.15 / mixed_ref=1 / me_range=64 / chroma_me=1 / trellis=2 / 8x8dct=1 / cqm=0 / deadzone=21,11 / fast_pskip=0 / chroma_qp_offset=-3 / threads=12 / sliced_threads=0 / nr=0 / decimate=1 / interlaced=0 / bluray_compat=0 / constrained_intra=0 / bframes=8 / b_pyramid=2 / b_adapt=2 / b_bias=0 / direct=3 / weightb=1 / open_gop=0 / weightp=2 / keyint=250 / keyint_min=25 / scenecut=40 / intra_refresh=0 / rc_lookahead=40 / rc=2pass / mbtree=1 / bitrate=8530 / ratetol=2.0 / qcomp=0.60 / qpmin=0 / qpmax=69 / qpstep=4 / cplxblur=20.0 / qblur=0.5 / ip_ratio=1.40 / aq=1:1.00
Default : Нет
Forced : Нет
Аудио #1
Идентификатор : 2
Формат : AC-3
Формат/Информация : Audio Coding 3
Расширение режима : CM (complete main)
Параметр Endianness формата : Big
Идентификатор кодека : A_AC3
Продолжительность : 1 ч. 29 м.
Вид битрейта : Постоянный
Битрейт : 224 Кбит/сек
Каналы : 2 канала
Расположение каналов : Front: L R
Частота : 48,0 КГц
Метод сжатия : С потерями
Размер потока : 143 Мбайт (2%)
Заголовок : AC3 2.0 AVO-Дольский
Язык : Russian
Default : Да
Forced : Нет
Аудио #2
Идентификатор : 3
Формат : AC-3
Формат/Информация : Audio Coding 3
Расширение режима : CM (complete main)
Параметр Endianness формата : Big
Идентификатор кодека : A_AC3
Продолжительность : 1 ч. 29 м.
Вид битрейта : Постоянный
Битрейт : 224 Кбит/сек
Каналы : 2 канала
Расположение каналов : Front: L R
Частота : 48,0 КГц
Метод сжатия : С потерями
Размер потока : 143 Мбайт (2%)
Заголовок : AC3 2.0 Original
Язык : Japanese
Default : Нет
Forced : Нет
Текст
Идентификатор : 4
Формат : UTF-8
Идентификатор кодека : S_TEXT/UTF8
Идентификатор кодека/Информация : UTF-8 Plain Text
Язык : English
Default : Нет
Forced : Нет

Скриншоты

Вне форума [Профиль] [ЛС]
Показать сообщения:    
Ответить на тему

Текущее время: Сегодня 10:43

Часовой пояс: GMT + 3



Вы не можете начинать темы
Вы не можете отвечать на сообщения
Вы не можете редактировать свои сообщения
Вы не можете удалять свои сообщения
Вы не можете голосовать в опросах
Вы не можете прикреплять файлы к сообщениям
Вы не можете скачивать файлы