Today is a free download without charge Download

Хардкор / Hardcore Henry (Илья Найшуллер) [2015, боевик, триллер, драма, криминал, WEBRip | Чистый звук]

Reply to topic
 
Author
Message

Region_13 ®

Gender:

Longevity: 5 years 7 months

Posts: 783

Location: Мальдивы

Торрент-статистика

Post 13-Apr-2016 09:44

[Quote]

Хардкор / Hardcore Год выпуска: 2015
Производство: Россия, США
Жанр: боевик, фантастика,
Длительность: 01:36:25
Перевод: Дублированное [Чистый звук]
Примечание: Присутствуют вшитые корейские субтитры
Режиссер: Илья Найшуллер
Актеры: Шарлто Копли, Тим Рот , Данила Козловский, Хейли Беннетт, Андрей Дементьев, Сергей Шнуров, Кирилл Серебренников, Александр Паль, Светлана Устинова, Даша Чаруша, Равшана Куркова
ОПИСАНИЕ
Прекрасная супружеская жизнь рядом с очаровательной Эстель — это все, что помнит главный герой после того, как просыпается в неизвестной научной лаборатории, где в чувства его приводит собственная жена. Но супруга тут же оказывается похищенной, и ничего не понимающий главный герой Генри уже вынужден преследовать монстра Акана, который украл его жену.
Теперь ради достижения цели Генри готов на многое. Но позже оказывается, что не только он один является врагом для Акана. У подозрительного Джимми тоже свои планы на злодея. Теперь вместе ребятам предстоит спасти Эстель и предотвратить попытку задействовать армию киборгов в борьбе с человечеством. Им предстоит бороться с самим воплощением зла.


Качество: WEBRip
Формат: AVI
Видео: XviD, 1627 Кбит/с, 720x400
Аудио #1:48.0 KHz, AC3, 2 ch, 384 Кбит/с

MEDIAINFO

Код:
Общее
Полное имя                               : C:\Users\ghdf\Desktop\HardKor.2O16.D.WEBRip.14OOMB.KOSHERA.avi
Формат                                   : AVI
Формат/Информация                        : Audio Video Interleave
Размер файла                             : 1,36 Гбайт
Продолжительность                        : 1 ч. 36 м.
Общий поток                              : 2024 Кбит/сек
Программа кодирования                    : VirtualDubMod 1.5.10.2 (build 2540/release)
Библиотека кодирования                   : VirtualDubMod build 2540/release
Видео
Идентификатор                            : 0
Формат                                   : MPEG-4 Visual
Профиль формата                          : Advanced Simple@L5
Параметр BVOP формата                    : 2
Параметр QPel формата                    : Нет
Параметр GMC формата                     : Без точки перехода
Параметр матрицы формата                 : Default (MPEG)
Идентификатор кодека                     : XVID
Идентификатор кодека/Подсказка           : XviD
Продолжительность                        : 1 ч. 36 м.
Битрейт                                  : 1628 Кбит/сек
Ширина                                   : 720 пикселей
Высота                                   : 400 пикселей
Соотношение сторон                       : 16:9
Частота кадров                           : 29,970 (30000/1001) кадров/сек
Цветовое пространство                    : YUV
Субдискретизация насыщенности            : 4:2:0
Битовая глубина                          : 8 бит
Тип развёртки                            : Прогрессивная
Метод сжатия                             : С потерями
Бит/(Пиксели*Кадры)                      : 0.189
Размер потока                            : 1,10 Гбайт (80%)
Библиотека кодирования                   : XviD 1.2.1 (UTC 2008-12-04)
Аудио
Идентификатор                            : 1
Формат                                   : AC-3
Формат/Информация                        : Audio Coding 3
Расширение режима                        : CM (complete main)
Параметр Endianness формата              : Big
Идентификатор кодека                     : 2000
Продолжительность                        : 1 ч. 36 м.
Вид битрейта                             : Постоянный
Битрейт                                  : 384 Кбит/сек
Каналы                                   : 2 канала
Расположение каналов                     : Front: L R
Частота                                  : 48,0 КГц
Частота кадров                           : 31,250 кадров/сек (1536 spf)
Метод сжатия                             : С потерями
Размер потока                            : 265 Мбайт (19%)
Выравнивание                             : Разделение по промежуткам
Продолжительность промежутка             : 33  мс. (1,00 видеокадр)
Время предзагрузки промежутка            : 500  мс.

скриншоты

     
Имеется реклама от спонсора показа.

_________________


Last edited by Region_13 on 2016-06-01 07:35; edited 2 times in total
Other forum [Profile] [PM]

Dracula

Longevity: 5 years 10 months

Posts: 10538

Торрент-статистика

Post 13-Apr-2016 16:14 (after 6 hours)

Топик был перенесен из форума Фильмы 2011-2015 в форум Фильмы 2011-2015


Геннадич
 
Display posts from previous:    
Reply to topic

The time now is: Today 18:00

All times are GMT + 3 Hours



You cannot post new topics in this forum
You cannot reply to topics in this forum
You cannot edit your posts in this forum
You cannot delete your posts in this forum
You cannot vote in polls in this forum
You cannot attach files in this forum
You cannot download files in this forum