Сегодня идет свободное скачивание без начисления Download

Дайс / Dice / Сезон: 1 / Серии: 1 (6) (Джей Карас, Скот Армстронг / Jay Karas, Scot Armstrong) [2016, комедия, WEBRip 720p] MVO (Несмертельное оружие) + Original

Ответить на тему
 
Автор
Сообщение

Omen ®

Стаж: 5 лет 11 месяцев

Сообщений: 184329

Торрент-статистика

Пост 11-Апр-2016 21:00

[Цитировать]

★ Дайс ★
Dice

«Сезон: 1 / Серии: 1 (6)»- Страна: США
Студия: Fox 21 / Showtime Networks
Жанр: комедия
Год выпуска: 2016
Продолжительность: 1 x ~30 мин.-Перевод: Профессиональный (многоголосый закадровый) - [Несмертельное оружие]
Субтитры: отсутствуют-Режиссёры: Джей Карас, Скот Армстронг / Jay Karas, Scot Armstrong
В ролях: Эндрю Дайс Клэй, Джейсон Рогель, Юджин Ким, Курт Кохлер, Кевин Корригэн, Наташа Леджеро, Брэд Моррис, Питер Добсон, Грег Уорсвик, Тезз Янси, Пол Бестерман, Джошуа Кингдон и др.
Описание: В центре событий сериала — жизнь некогда популярного стендап-комика Эндрю Дайса Клэя. Он живет в Лас-Вегасе и пытается вернуть себе былую славу, одновременно решая финансовые проблемы и неурядицы с бывшей женой. Сериал Дайс частично основан на автобиографии стендап-комика Эндрю Дайса Клэя.- -Релиз от: -Роли озвучивали: Денис Строев, Дмитрий Лунёв, Виталий Измалков и Вероника Стригунова-Тип релиза: WEBRip 720p
Контейнер: MKV
Видео кодек: H.264
Аудио кодек: AC3
Видео: 1280x720 (16:9), 23.976 fps, ~4240 Kbps, 0.150 bit/pixel
| Аудио #1: 48 kHz, AC3 Dolby Digital, 2/0 (L,R) ch, ~192.00 kbps | Russian | MVO
| Аудио #2: 48 kHz, AC3 Dolby Digital, 2/0 (L,R) ch, ~192.00 kbps | English | Original- -

Скриншоты


-

Список серий в раздаче

Эпизод: 01
«Элвис» (Elvis)
Дата премьерного показа в США: 10 апреля 2016 г.-
-

MediaInfo

Код:
General
Unique ID                   : 218188840208679144981488336669004692714 (0xA425A45FF031E3CC9D4F7CB72A067CEA)
Complete name               : Dice.S01E01.Elvis.WEBRip.720p.H.264.RUS.-Nesmertelnoe.oruzhie.mkv
Format                      : Matroska
Format version              : Version 2
File size                   : 617 MiB
Duration                    : 28mn 56s
Overall bit rate            : 2 979 Kbps
Movie name                  : Дайс / Dice / Сезон: 1 / Эпизод: 01 - Элвис
Encoded date                : UTC 2016-04-11 15:43:31
Writing application         : mkvmerge v5.2.1 ('A Far Off Place') built on Jan  2 2012 23:21:10
Writing library             : libebml v1.2.3 + libmatroska v1.3.0
Video
ID                          : 1
Format                      : AVC
Format/Info                 : Advanced Video Codec
Format profile              : High@L3.1
Format settings, CABAC      : Yes
Format settings, ReFrames   : 5 frames
Codec ID                    : V_MPEG4/ISO/AVC
Duration                    : 28mn 56s
Bit rate                    : 2 536 Kbps
Width                       : 1 280 pixels
Height                      : 720 pixels
Display aspect ratio        : 16:9
Frame rate mode             : Constant
Frame rate                  : 23.976 (24000/1001) fps
Color space                 : YUV
Chroma subsampling          : 4:2:0
Bit depth                   : 8 bits
Scan type                   : Progressive
Bits/(Pixel*Frame)          : 0.115
Stream size                 : 525 MiB (85%)
Title                       : Релиз от: Несмертельное оружие
Language                    : English
Default                     : Yes
Forced                      : No
Audio #1
ID                          : 2
Format                      : AC-3
Format/Info                 : Audio Coding 3
Mode extension              : CM (complete main)
Format settings, Endianness : Big
Codec ID                    : A_AC3
Duration                    : 28mn 56s
Bit rate mode               : Constant
Bit rate                    : 192 Kbps
Channel(s)                  : 2 channels
Channel positions           : Front: L R
Sampling rate               : 48.0 KHz
Frame rate                  : 31.250 fps (1536 spf)
Compression mode            : Lossy
Stream size                 : 39.7 MiB (6%)
Title                       : MVO (Несмертельное оружие)
Language                    : Russian
Default                     : Yes
Forced                      : No
Audio #2
ID                          : 3
Format                      : AC-3
Format/Info                 : Audio Coding 3
Mode extension              : CM (complete main)
Format settings, Endianness : Big
Codec ID                    : A_AC3
Duration                    : 28mn 56s
Bit rate mode               : Constant
Bit rate                    : 192 Kbps
Channel(s)                  : 2 channels
Channel positions           : Front: L R
Sampling rate               : 48.0 KHz
Frame rate                  : 31.250 fps (1536 spf)
Compression mode            : Lossy
Stream size                 : 39.7 MiB (6%)
Title                       : Original
Language                    : English
Default                     : No
Forced                      : No
[/spoiler]
-

Внимание! Раздача ведется путём добавления новых серий

Раздача ведётся путём добавления новых серий; при каждом добавлении создаётся новый торрент. Чтобы начать докачку новой серии, пользователям необходимо сделать следующее:
• (1) остановить скачивание,
• (2) удалить старый торрент у себя из клиента (старые серии удалять не надо),
• (3) скачать новый торрент и запустить его у себя в клиенте вместо старого, при этом указать клиенту путь в старую папку куда и должно происходить скачивание новых серий.

Ваш клиент при этом должен произвести хеширование (проверку) старой папки (если не производит сам - помогите ему сделать это), и будет докачивать только те серии которых у вас ещё нет. Старые серии при этом не удаляются, а продолжают раздаваться!
Eсли вы уже удалили старые серии, то предотвратить повторную закачку старых серий можно, отжав галочку в соответствующих местах при запуске нового торрента. По возможности, желательно не удалять старые серии как можно дольше чтобы релизёр не столько продолжал раздавать старые серии, а смог сконцентрироваться на новых.
- [url=tracker.php?f=2366&nm=Dice]Все раздачи сериала[/url]-
Вне форума [Профиль] [ЛС]
Показать сообщения:    
Ответить на тему

Текущее время: Сегодня 02:06

Часовой пояс: GMT + 3



Вы не можете начинать темы
Вы не можете отвечать на сообщения
Вы не можете редактировать свои сообщения
Вы не можете удалять свои сообщения
Вы не можете голосовать в опросах
Вы не можете прикреплять файлы к сообщениям
Вы не можете скачивать файлы