Сегодня идет свободное скачивание без начисления Download

Чужестранка / Outlander / Сезон: 2 / Серии: 1 из 13 (Брайан Келли, Анна Ферстер / Brian Kelly, Anna Foerster) [2016, фантастика, драма, мелодрама, WEBRip 720p] MVO (BaibaKo) + Original

Ответить на тему
 
Автор
Сообщение

Omen ®

Стаж: 5 лет 9 месяцев

Сообщений: 184433

Торрент-статистика

Пост 09-Апр-2016 15:03

[Цитировать]

--Чужестранка / Outlander--- Год выпуска: 2016
Страна: США
Жанр: фантастика, драма, мелодрама
Продолжительность: ~01:00:00-Перевод: Профессиональный (многоголосый закадровый) BaibaKo-Режиссёр: Брайан Келли, Анна Ферстер / Brian Kelly, Anna Foerster-В ролях: Каитриона Бэлфи, Сэм Юэн, Дункан Лакруа, Гари Льюис, Грэм Мак Тавиш, Тобиаш Мензес, Стивен Уолтерс, Аннет Бэдленд, Родерик Джилкисон.-Описание: Сериал рассказывает историю Клэр Рэндалл, военной медсестры из 40-х годов XX века, которая во время прогулки у легендарных шотландских каменных кругов загадочно перемещается во времени в 1743-й год. Попадая в XVIII век, Клэр оказывается в неизвестном мире, где ее жизни угрожает опасность. Девушка должна найти возможность выжить и вернуться обратно в будущее, где остался ее муж Фрэнк Рэндалл. Чтобы спастись в неизвестном и незнакомом героине прошлом, она вынуждена выйти замуж за Джейми Фрейзера, галантного шотландского воина со сложной судьбой и обезоруживающим чувством юмора.-Доп. информация:
В релизе отсутствует реклама
--Качество: WEBRip 720p
Контейнер: MKV
Видео: H.264, 1276x716 (16:9), 23,976 fps, ~4500 kbps, 0.205 bit/pixel
Аудио # rus: AAC, 48 kHz, 2 ch, 170 Kbps - BaibaKo
Аудио # eng: AAC, 48 kHz, 2 ch, 125 Kbps - оригинал
Субтитры: английские

Релиз

Релиз: Grandfather61
Работа со звуком: Grandfather61

Список серий

01. Сквозь тусклое стекло (Through a Glass, Darkly)

MediaInfo

General
Unique ID : 249414913993228768428702183719935586141 (0xBBA390AD40CBAFBDBAACCF64C102AF5D)
Complete name : G:\Films\Outlander.S02.720p\Outlander.S02E01.720p.WEBRip.BaibaKo.mkv
Format : Matroska
Format version : Version 4 / Version 2
File size : 2.04 GiB
Duration : 1h 1mn
Overall bit rate : 4 715 Kbps
Encoded date : UTC 2016-04-09 10:26:15
Writing application : mkvmerge v8.6.1 ('Flying') 64bit
Writing library : libebml v1.3.3 + libmatroska v1.4.4
Video
ID : 1
Format : AVC
Format/Info : Advanced Video Codec
Format profile : High@L4.1
Format settings, CABAC : Yes
Format settings, ReFrames : 4 frames
Format settings, GOP : M=3, N=48
Codec ID : V_MPEG4/ISO/AVC
Duration : 1h 1mn
Bit rate mode : Constant
Bit rate : 4 500 Kbps
Width : 1 276 pixels
Height : 716 pixels
Display aspect ratio : 16:9
Frame rate mode : Constant
Frame rate : 23.976 (24000/1001) fps
Color space : YUV
Chroma subsampling : 4:2:0
Bit depth : 8 bits
Scan type : Progressive
Bits/(Pixel*Frame) : 0.205
Stream size : 1.91 GiB (94%)
Language : English
Default : Yes
Forced : No
Color range : Limited
Color primaries : BT.709
Transfer characteristics : BT.709
Matrix coefficients : BT.709
Audio #1
ID : 2
Format : AAC
Format/Info : Advanced Audio Codec
Format profile : LC
Codec ID : A_AAC
Duration : 1h 1mn
Bit rate : 170 Kbps
Channel(s) : 2 channels
Channel positions : Front: L R
Sampling rate : 48.0 KHz
Frame rate : 46.875 fps (1024 spf)
Compression mode : Lossy
Delay relative to video : 9ms
Stream size : 75.2 MiB (4%)
Title : BaibaKo 2.0
Language : Russian
Default : Yes
Forced : No
Audio #2
ID : 3
Format : AAC
Format/Info : Advanced Audio Codec
Format profile : LC
Codec ID : A_AAC
Duration : 1h 1mn
Bit rate : 125 Kbps
Channel(s) : 2 channels
Channel positions : Front: L R
Sampling rate : 48.0 KHz
Frame rate : 46.875 fps (1024 spf)
Compression mode : Lossy
Stream size : 55.6 MiB (3%)
Title : original 2.0
Language : English
Default : No
Forced : No
Text
ID : 4
Format : UTF-8
Codec ID : S_TEXT/UTF8
Codec ID/Info : UTF-8 Plain Text
Duration : 57mn 55s
Bit rate : 64 bps
Count of elements : 697
Stream size : 27.5 KiB (0%)
Title : CC
Language : English
Default : No
Forced : No
Menu
00:00:00.054 : en:00:00:00.054

Скриншоты

Внимание! Раздача ведётся путём добавления новых серий.


Внимание! Раздача ведётся путём добавления новых серий; при каждом добавлении создётся новый торрент. Чтобы начать докачку новой серии, пользователям необходимо сделать следующее:
Остановить скачивание.
Удалить старый торрент у себя из клиента (старые серии удалять не надо).
Скачать новый торрент и запустить его у себя в клиенте вместо старого, при этом указать клиенту путь в старую папку куда и должно происходить скачивание новых серий.
Ваш клиент при этом должен произвести хеширование (проверку) старой папки (если не производит сам - помогите ему сделать это), и будет докачивать только те серии которых у вас ещё нет. Старые серии при этом не удаляются, а продолжают раздаваться!
Eсли вы уже удалили старые серии, то предотвратить повторную закачку старых серий можно, отжав галочку в соответсвующих местах при запуске нового торрента. По возможности, желательно не удалять старые серии как можно дольше чтобы релизёр не столько продолжал раздавать старые серии, а смог сконцентрироваться на новых.
Вне форума [Профиль] [ЛС]
Показать сообщения:    
Ответить на тему

Текущее время: Сегодня 10:08

Часовой пояс: GMT + 3



Вы не можете начинать темы
Вы не можете отвечать на сообщения
Вы не можете редактировать свои сообщения
Вы не можете удалять свои сообщения
Вы не можете голосовать в опросах
Вы не можете прикреплять файлы к сообщениям
Вы не можете скачивать файлы