Сегодня идет свободное скачивание без начисления Download

Американская история преступлений / The People v. O.J. Simpson: American Crime Story / Сезон: 1 / Серии: 10 из 10 (Райан Мерфи, Энтони Хемингуэй) [2016, драма, криминал, биография, WEB-DLRip] MVO (LostFilm) + Original

Ответить на тему
 
Автор
Сообщение

Omen ®

Стаж: 5 лет 9 месяцев

Сообщений: 184402

Торрент-статистика

Пост 09-Апр-2016 12:00

[Цитировать]

Американская история преступлений / The People v. O.J. Simpson: American Crime Story
Год выпуска: 2016
Страна: США
Жанр: драма, криминал, биография
Продолжительность: ~ 00:55:00
Перевод: Профессиональный (многоголосый закадровый) LostFilm
Режиссёр: Райан Мерфи, Энтони Хемингуэй
В ролях: Сэльма Блэр, Конни Бриттон, Стерлинг К. Браун, Кеннет Чои, Кьюба Гудинг мл., Брюс Гринвуд, Нэйтан Лейн, Билли Магнуссен, Сара Полсон, Дэвид Швиммер
Описание: Сюжет основан на реальных событиях, судебном расследовании, известном как "Дело Симпсона". О. Джей Симпсон обвинялся в зверском убийстве собственной жены. За подобные преступления обвиняемые обычно приговариваются к смертной казни, но после очень затяжного судебного процесса Симпсон был оправдан.
Сэмпл: http://multi-up.com/1096690
Качество: WEB-DLRip
Формат: AVI
Видео: Xvid 720x400 23.976fps 1 524 Kbps
Аудио: MP3 48000Hz stereo 128kbps
Аудио 2: MP3 48000Hz stereo 128kbps
Субтитры: отсутствуют

MediaInfo

Format : AVI
Format/Info : Audio Video Interleave
File size : 750 MiB
Duration : 57mn 53s
Overall bit rate : 1 812 Kbps
Writing application : VirtualDubMod 1.5.10.3 | www.virtualdub-fr.org || (build 2550/release)
Writing library : VirtualDubMod build 2550/release
Video
ID : 0
Format : MPEG-4 Visual
Format profile : Advanced Simple@L5
Format settings, BVOP : Yes
Format settings, QPel : No
Format settings, GMC : No warppoints
Format settings, Matrix : Default (MPEG)
Codec ID : XVID
Codec ID/Hint : XviD
Duration : 57mn 53s
Bit rate : 1 542 Kbps
Width : 720 pixels
Height : 400 pixels
Display aspect ratio : 16:9
Frame rate : 23.976 fps
Color space : YUV
Chroma subsampling : 4:2:0
Bit depth : 8 bits
Scan type : Progressive
Compression mode : Lossy
Bits/(Pixel*Frame) : 0.223
Stream size : 638 MiB (85%)
Writing library : XviD 73
Audio #1
ID : 1
Format : MPEG Audio
Format version : Version 1
Format profile : Layer 3
Mode : Joint stereo
Codec ID : 55
Codec ID/Hint : MP3
Duration : 57mn 53s
Bit rate mode : Constant
Bit rate : 128 Kbps
Channel count : 2 channels
Sampling rate : 48.0 KHz
Compression mode : Lossy
Stream size : 53.0 MiB (7%)
Alignment : Aligned on interleaves
Interleave, duration : 42 ms (1.00 video frame)
Interleave, preload duration : 504 ms
Audio #2
ID : 2
Format : MPEG Audio
Format version : Version 1
Format profile : Layer 3
Mode : Joint stereo
Codec ID : 55
Codec ID/Hint : MP3
Duration : 57mn 53s
Bit rate mode : Constant
Bit rate : 128 Kbps
Channel count : 2 channels
Sampling rate : 48.0 KHz
Compression mode : Lossy
Stream size : 53.0 MiB (7%)
Alignment : Aligned on interleaves
Interleave, duration : 42 ms (1.00 video frame)
Interleave, preload duration : 504 ms

Скриншоты

Вне форума [Профиль] [ЛС]
Показать сообщения:    
Ответить на тему

Текущее время: Сегодня 08:00

Часовой пояс: GMT + 3



Вы не можете начинать темы
Вы не можете отвечать на сообщения
Вы не можете редактировать свои сообщения
Вы не можете удалять свои сообщения
Вы не можете голосовать в опросах
Вы не можете прикреплять файлы к сообщениям
Вы не можете скачивать файлы