Сегодня идет свободное скачивание без начисления Download

Тайны Броукенвуда / The Brokenwood Mysteries / Сезон: 2 / Серии: 1-4 из 4 (Майк Смит, Джошуа Фриззелл, Майкл Херст) [2015, Драма, детектив, PDTV] Original + Rus Subs + Eng Subs

Ответить на тему
 
Автор
Сообщение

Omen ®

Стаж: 5 лет 11 месяцев

Сообщений: 184329

Торрент-статистика

Пост 08-Апр-2016 18:00

[Цитировать]

Тайны Броукенвуда / The Brokenwood Mysteries
Год выпуска: 2015
Страна: Новая Зеландия
Жанр: Драма, детектив
Продолжительность: 01:30:00
Перевод: Субтитры (переводчик klesch, под редакцией podruga)
Режиссёр: Майк Смит, Джошуа Фриззелл, Майкл Херст
В ролях: Нилл Ри, Ферн Сазерленд, Пена Хема Тейлор, Ник Сэмпсон, Кристина Ионда, Колин Мой, Энди Краун, Мириама Макдауэлл, Марк Притчард, Крис Шервуд
Описание: Детектив-инспектор Майк Шепперд неожиданно возвращается в родной провинциальный городок Броукенвуд. Он достиг небывалых высот в своей профессии, в Новой Зеландии ему практически нет равных. Майк обладает острым умом и способен поймать даже самого изощренного преступника. Будучи человеком добродушным, он без труда находит общий язык как со своими коллегами, так и с подозреваемыми, столь редкое качество позволяет ему блестяще проводить допросы. В Броукенвуде он знакомится со своим новым напарником — молодым и решительным детективом Кристин Симс. Вместе героям сериала предстоит расследовать сложные и запутанные дела.
Сэмпл: http://sendfile.su/1222599
Качество: PDTV
Формат: MKV
Видео: AVC, 720x400 (16:9), 25.000 fps, ~ 1000 kbps
Аудио: AAC, 48.0 KHz, 2 channels, 128 Kbps | English
Субтитры: Русские, английские

MediaInfo

Video
ID : 1
Format : AVC
Format/Info : Advanced Video Codec
Format profile : Baseline@L3
Format settings, CABAC : No
Format settings, ReFrames : 1 frame
Codec ID : V_MPEG4/ISO/AVC
Duration : 1h 28mn
Bit rate : 1 000 Kbps
Width : 720 pixels
Height : 400 pixels
Display aspect ratio : 16:9
Frame rate mode : Constant
Frame rate : 25.000 fps
Color space : YUV
Chroma subsampling : 4:2:0
Bit depth : 8 bits
Scan type : Progressive
Bits/(Pixel*Frame) : 0.139
Stream size : 635 MiB (88%)
Writing library : x264 core 142 r2479 dd79a61
Encoding settings : cabac=0 / ref=1 / deblock=1:0:0 / analyse=0x1:0x111 / me=hex / subme=2 / psy=1 / psy_rd=1.00:0.00 / mixed_ref=0 / me_range=16 / chroma_me=1 / trellis=0 / 8x8dct=0 / cqm=0 / deadzone=21,11 / fast_pskip=1 / chroma_qp_offset=0 / threads=6 / lookahead_threads=2 / sliced_threads=0 / nr=0 / decimate=1 / interlaced=0 / bluray_compat=0 / constrained_intra=0 / bframes=0 / weightp=0 / keyint=250 / keyint_min=25 / scenecut=40 / intra_refresh=0 / rc_lookahead=10 / rc=abr / mbtree=1 / bitrate=1000 / ratetol=1.0 / qcomp=0.60 / qpmin=0 / qpmax=69 / qpstep=4 / vbv_maxrate=10000 / vbv_bufsize=10000 / nal_hrd=none / filler=0 / ip_ratio=1.40 / aq=1:1.00
Language : English
Default : Yes
Forced : No
Color range : Limited
Color primaries : BT.601 PAL
Transfer characteristics : BT.709
Matrix coefficients : BT.601
Audio
ID : 2
Format : AAC
Format/Info : Advanced Audio Codec
Format profile : LC
Codec ID : A_AAC
Duration : 1h 28mn
Bit rate : 128 Kbps
Channel(s) : 2 channels
Channel positions : Front: L R
Sampling rate : 48.0 KHz
Frame rate : 46.875 fps (1024 spf)
Compression mode : Lossy
Stream size : 81.4 MiB (11%)
Language : English
Default : Yes
Forced : No
Text #1
ID : 3
Format : UTF-8
Codec ID : S_TEXT/UTF8
Codec ID/Info : UTF-8 Plain Text
Duration : 1h 27mn
Bit rate : 126 bps
Count of elements : 1432
Stream size : 81.6 KiB (0%)
Language : Russian
Default : Yes
Forced : No
Text #2
ID : 4
Format : UTF-8
Codec ID : S_TEXT/UTF8
Codec ID/Info : UTF-8 Plain Text
Duration : 1h 28mn
Bit rate : 142 bps
Count of elements : 1497
Stream size : 92.2 KiB (0%)
Language : English
Default : No
Forced : No

Релиз

Khoren
Русские cубтитры - notabenoid (переводчик klesch, под редакцией podruga)

Скриншоты



Вне форума [Профиль] [ЛС]
Похожие темы
Форум Тема Автор Торрент Отв. Посл. сообщение
./templates/default/images/folder_dl.gif Приключения, детектив, боевик, триллер Андрей Ильин | Обет молчания. Тайные люди или Записки невидимки (1 книга из 10) [2013] [MP3] UndegraundMen
1 | 0

0 | 891

4

2013-06-11 03:05
UndegraundMen Последнее
./templates/default/images/folder_dl.gif Приключения и квесты Secrets of the Dark: The Flower of Shadow Collector\'s Edition / Тайны Тьмы: Цветок Теней. Коллекционное издание [P] [RUS / ENG] (2014) Omen
9 | 0

0 | 1451

20

2015-06-11 12:04
Omen Последнее
Показать сообщения:    
Ответить на тему

Текущее время: Сегодня 20:29

Часовой пояс: GMT + 3



Вы не можете начинать темы
Вы не можете отвечать на сообщения
Вы не можете редактировать свои сообщения
Вы не можете удалять свои сообщения
Вы не можете голосовать в опросах
Вы не можете прикреплять файлы к сообщениям
Вы не можете скачивать файлы