Сегодня идет свободное скачивание без начисления Download

Жизнь в деталях / Life in Pieces / Сезон: 1 / Серии: 1-22 из 22 (Джастин Адлер / Justin Adler) [2015, комедия, HDTVRip] DVO (Ozz) + Original Eng + Rus Subs

Ответить на тему
 
Автор
Сообщение

Omen ®

Стаж: 5 лет 11 месяцев

Сообщений: 184329

Торрент-статистика

Пост 08-Апр-2016 12:00

[Цитировать]

Жизнь в деталях - Первый сезонLove - First Season- Годы выпуска: 2015-2016
Страна: США
Жанр: комедия-Продолжительность: 00:25:00
Перевод: Профессиональный (двухголосый закадровый) Ozz
Автор идеи: Джастин Адлер / Justin Adler
В ролях: Джеймс Бролин, Дайан Уист, Томас Садоски, Анжелика Кебрал, Колин Хэнкс, Зои Листер-Джонс, Дэн Баккедаль, Бетси Брандт, Найл Каннингем, Холли Джей Барретт, Жизелль Айзенберг, Сьюзан Пак, Джордан Пил и др.-Описание: У супругов Шортов, властной Джоан и эксцентричного Джона, трое детей, у каждого из которых свой характер. Старшая дочь Хизер и ее муж Тим озабочены воспитанием своих отпрысков, которых у них, как и у родителей, тоже трое. Младший сын Грег и его жена Джен озабочены предстоящим рождением первенца. А средний сын Мэтт только что нашел настоящую любовь — свою коллегу Коллин. В жизни большой семьи Шортов не обходится без различных курьезных ситуаций. Причем каждый из членов семейства имеет на происходящее свою собственную точку зрения, отличающуюся от мнения его многочисленных родственников.- -Sample-
Роли озвучивают: Алексей Серёгин и Ирина Воронова
Перевод: Trotteville
Подготовлено: Ozz-Качество: HDTVRip
Формат: AVI
Видео: XviD, 720x400 (16:9), 23.976 fps, ~2000 kbps
Аудио #1: Russian 48.0 KHz, AС3, 6 channels, 384 Kbps |Ozz|
Аудио #2: English 48.0 KHz, AС3, 6 channels, 384 Kbps |Original|
Субтитры: русские (Trotteville)-

MediaInfo

General
Complete name : G:\Life in Pieces Season 1 Ozz\Life.in.Pieces.S01E01.HDTVRip.400p.Ozz.avi
Format : AVI
Format/Info : Audio Video Interleave
File size : 414 MiB
Duration : 20mn 48s
Overall bit rate : 2 782 Kbps
Writing application : VirtualDubMod 1.5.10.3 | www.virtualdub-fr.org || (build 2550/release)
Writing library : VirtualDubMod build 2550/release
Video
ID : 0
Format : MPEG-4 Visual
Format profile : Advanced Simple@L5
Format settings, BVOP : 1
Format settings, QPel : No
Format settings, GMC : No warppoints
Format settings, Matrix : Default (MPEG)
Codec ID : XVID
Codec ID/Hint : XviD
Duration : 20mn 48s
Bit rate : 2 000 Kbps
Width : 720 pixels
Height : 400 pixels
Display aspect ratio : 16:9
Frame rate : 23.976 fps
Color space : YUV
Chroma subsampling : 4:2:0
Bit depth : 8 bits
Scan type : Progressive
Compression mode : Lossy
Bits/(Pixel*Frame) : 0.290
Stream size : 298 MiB (72%)
Writing library : XviD 73
Audio #1
ID : 1
Format : AC-3
Format/Info : Audio Coding 3
Mode extension : CM (complete main)
Format settings, Endianness : Big
Codec ID : 2000
Duration : 20mn 48s
Bit rate mode : Constant
Bit rate : 384 Kbps
Channel(s) : 6 channels
Channel positions : Front: L C R, Side: L R, LFE
Sampling rate : 48.0 KHz
Bit depth : 16 bits
Compression mode : Lossy
Stream size : 57.2 MiB (14%)
Alignment : Split accross interleaves
Interleave, duration : 42 ms (1.00 video frame)
Interleave, preload duration : 500 ms
Audio #2
ID : 2
Format : AC-3
Format/Info : Audio Coding 3
Mode extension : CM (complete main)
Format settings, Endianness : Big
Codec ID : 2000
Duration : 20mn 48s
Bit rate mode : Constant
Bit rate : 384 Kbps
Channel(s) : 6 channels
Channel positions : Front: L C R, Side: L R, LFE
Sampling rate : 48.0 KHz
Bit depth : 16 bits
Compression mode : Lossy
Stream size : 57.2 MiB (14%)
Alignment : Split accross interleaves
Interleave, duration : 42 ms (1.00 video frame)
Interleave, preload duration : 500 ms

Скриншоты

-
Вне форума [Профиль] [ЛС]
Похожие темы
Форум Тема Автор Торрент Отв. Посл. сообщение
./templates/default/images/folder_dl.gif Психология, Тренинг, Саморазвитие Мартин Селигман | Как научиться оптимизму. Измените взгляд на мир и свою жизнь (2013) [PDF] Omen
1 | 0

0 | 927

4

2014-08-30 22:10
Omen Последнее
./templates/default/images/folder_dl.gif Психология, Тренинг, Саморазвитие Алекс Лесли | ЖЖизнь без трусов (2011) [MP3] moralis
1 | 0

0 | 1319

8

2016-04-10 21:57
moralis Последнее
./templates/default/images/folder_dl.gif Философия, Религия, Эзотерика Universum - Вентер К. - Расшифрованная жизнь. Мой геном, моя жизнь [2015, FB2, RUS] Omen
1 | 0

0 | 575

0

2016-07-22 01:00
Omen Последнее
./templates/default/images/folder_dl.gif Психология, Тренинг, Саморазвитие Тим Харфорд | Хаос. Как беспорядок меняет нашу жизнь к лучшему (2018) [FB2] }{@R0N
1 | 0

0 | 1284

8

2017-12-16 17:02
}{@R0N Последнее
./templates/default/images/folder_dl.gif Психология, Тренинг, Саморазвитие Кристоф Андре | Искусство и медитация. 24 урока, которые день за днем преображают жизнь (2018) [FB2] }{@R0N
1 | 0

0 | 1565

9

2018-01-24 22:36
}{@R0N Последнее
Показать сообщения:    
Ответить на тему

Текущее время: Сегодня 02:06

Часовой пояс: GMT + 3



Вы не можете начинать темы
Вы не можете отвечать на сообщения
Вы не можете редактировать свои сообщения
Вы не можете удалять свои сообщения
Вы не можете голосовать в опросах
Вы не можете прикреплять файлы к сообщениям
Вы не можете скачивать файлы