Сегодня идет свободное скачивание без начисления Download

Ловушка / Уловка / Улов / The Catch / Сезон: 1 / Серии: 1 из 13 (Кевин Даулинг, Джули Энн Робинсон) [2016, Триллер, драма, криминал, WEB-Rip 720] DUB + Original

Ответить на тему
 
Автор
Сообщение

Omen ®

Стаж: 6 лет 1 месяц

Сообщений: 184308

Торрент-статистика

Пост 07-Апр-2016 18:00

[Цитировать]

Ловушка / Уловка / Улов / The Catch-Год выпуска: 2016
Страна: США
Жанр: Триллер, драма, криминал
Продолжительность: ~00:42:00 [серия]
Перевод: Профессиональный (полное дублирование)
Режиссёр: Кевин Даулинг, Джули Энн Робинсон
В ролях: Мирей Инос, Питер Краузе, Соня Уолгер, Алими Баллард, Роуз Роллинз, Джеки Идо, Джей Хейден, Элви Йост
Описание: Главная героиня сериала - Элис Воган, молодая успешная женщина, партнер в одной из ведущих юридических фирм Лос-Анджелеса. По профессии Элис - судебный бухгалтер, она считается одним из лучших специалистов в своей области. Мисс Воган специализируется на расследовании финансовых афер и может похвастаться богатым послужным списком раскрытых дел в этой сфере.
Однако успехи на профессиональном поприще не мешают молодой женщине однажды самой стать жертвой мошенничества. Буквально за пару месяцев до свадьбы выясняется, что жених Элис Киран оказывается брачным аферистом. Воспользовавшись доверием своей влюбленной невесты, Киран присваивает себе несколько миллионов долларов с ее счета, драгоценности, а также пакет важных финансовых документов, после чего мужчина исчезает.
Элис решает отомстить обманувшим ее мошенникам и начинает собственную игру.
Релиз: CasStudio
Качество: WEB-Rip 720p (HULU) | Семпл
Формат: MKV
Видео: AVC (x264) | 1280x720p | 25.000 fps | ~ 2324 Kbps
Аудио 1: AC3 | 48 KHz | 2.0 (Front: L R) | ~224 Kbps [RUS] - DUB
Аудио 2: AC3 | 48 KHz | 5.1 (Front: L C R Side: L R) | ~384 Kbps [RUS] - Original
Субтитры: Английские

Media Info

Код:
General
Unique ID                                : 244943117185864186811620587868165318432 (0xB84654126A132DA9936AD1701BF52720)
Complete name                            : \The.Catch.S01.720p.HULU.WEBRip.DD2.0-5.1.H.264-CasStudio\The.Catch.S01E01.Pilot.720p.HULU.WEBRip.DD2.0-5.1.H.264-CasStudio.mkv
Format                                   : Matroska
Format version                           : Version 4 / Version 2
File size                                : 866 MiB
Duration                                 : 41mn 14s
Overall bit rate                         : 2 936 Kbps
Movie name                               : The.Catch.S01E01.Pilot.720p.HULU.WEBRip.DD2.0-5.1.H.264-CasStudio
Encoded date                             : UTC 2016-04-07 13:18:12
Writing application                      : mkvmerge v9.0.1 ('Obstacles') 64bit
Writing library                          : libebml v1.3.3 + libmatroska v1.4.4
Cover                                    : Yes
Attachments                              : Cover
Video
ID                                       : 1
Format                                   : AVC
Format/Info                              : Advanced Video Codec
Format profile                           : High@L3.1
Format settings, CABAC                   : Yes
Format settings, ReFrames                : 5 frames
Codec ID                                 : V_MPEG4/ISO/AVC
Duration                                 : 41mn 14s
Bit rate                                 : 2 324 Kbps
Width                                    : 1 280 pixels
Height                                   : 720 pixels
Display aspect ratio                     : 16:9
Frame rate mode                          : Constant
Frame rate                               : 25.000 fps
Color space                              : YUV
Chroma subsampling                       : 4:2:0
Bit depth                                : 8 bits
Scan type                                : Progressive
Bits/(Pixel*Frame)                       : 0.101
Stream size                              : 686 MiB (79%)
Language                                 : English
Default                                  : Yes
Forced                                   : No
Audio #1
ID                                       : 2
Format                                   : AC-3
Format/Info                              : Audio Coding 3
Mode extension                           : CM (complete main)
Format settings, Endianness              : Big
Codec ID                                 : A_AC3
Duration                                 : 41mn 14s
Bit rate mode                            : Constant
Bit rate                                 : 224 Kbps
Channel(s)                               : 2 channels
Channel positions                        : Front: L R
Sampling rate                            : 48.0 KHz
Frame rate                               : 31.250 fps (1536 spf)
Compression mode                         : Lossy
Stream size                              : 66.1 MiB (8%)
Language                                 : Russian
Default                                  : Yes
Forced                                   : No
Audio #2
ID                                       : 3
Format                                   : AC-3
Format/Info                              : Audio Coding 3
Mode extension                           : CM (complete main)
Format settings, Endianness              : Big
Codec ID                                 : A_AC3
Duration                                 : 41mn 14s
Bit rate mode                            : Constant
Bit rate                                 : 384 Kbps
Channel(s)                               : 6 channels
Channel positions                        : Front: L C R, Side: L R, LFE
Sampling rate                            : 48.0 KHz
Frame rate                               : 31.250 fps (1536 spf)
Compression mode                         : Lossy
Stream size                              : 113 MiB (13%)
Language                                 : English
Default                                  : No
Forced                                   : No
Text
ID                                       : 4
Format                                   : UTF-8
Codec ID                                 : S_TEXT/UTF8
Codec ID/Info                            : UTF-8 Plain Text
Duration                                 : 40mn 33s
Bit rate                                 : 95 bps
Count of elements                        : 934
Stream size                              : 28.4 KiB (0%)
Title                                    : CC
Language                                 : English
Default                                  : No
Forced                                   : No

Скриншоты

Внимание! Раздача ведётся путём добавления новых серий

Внимание! Раздача ведётся путём добавления новых серий; при каждом добавлении создаётся новый торрент. Чтобы начать докачку новой серии, пользователям необходимо сделать следующее:
(1) остановить скачивание,
(2) удалить старый торрент у себя из клиента (старые серии удалять не надо),
(3) скачать новый торрент и запустить его у себя в клиенте вместо старого, при этом указать клиенту путь в старую папку куда и должно происходить скачивание новых серий.
Ваш клиент при этом должен произвести хеширование (проверку) старой папки (если не производит сам - помогите ему сделать это), и будет докачивать только те серии которых у вас ещё нет. Старые серии при этом не удаляются, а продолжают раздаваться!
Eсли вы уже удалили старые серии, то предотвратить повторную закачку старых серий можно, отжав галочку в соответствующих местах при запуске нового торрента. По возможности, желательно не удалять старые серии как можно дольше чтобы релизёр не столько продолжал раздавать старые серии, а смог сконцентрироваться на новых.
Вне форума [Профиль] [ЛС]
Показать сообщения:    
Ответить на тему

Текущее время: Сегодня 04:45

Часовой пояс: GMT + 3



Вы не можете начинать темы
Вы не можете отвечать на сообщения
Вы не можете редактировать свои сообщения
Вы не можете удалять свои сообщения
Вы не можете голосовать в опросах
Вы не можете прикреплять файлы к сообщениям
Вы не можете скачивать файлы