Сегодня идет свободное скачивание без начисления Download

H2O Просто Добавь Воды / H2O Just add water / Сезон: 1 / Серии: 1-3 из 26 (Колин Баддс, Джеффри Уокер) [2006, Фэнтези, приключения, драма, семейный, молодежный, WEB-DLRip] Dub (по заказу телеканала Джетикс)

Ответить на тему
 
Автор
Сообщение

Omen ®

Стаж: 5 лет 7 месяцев

Сообщений: 185427

Торрент-статистика

Пост 07-Апр-2016 15:00

[Цитировать]

H2O Просто Добавь Воды / H2O Just add water
Год выпуска: 2006
Страна: Австралия
Жанр: Фэнтези, приключения, драма, семейный, молодежный
Продолжительность: 22 munites
Перевод: Профессиональный (дублированный) по заказу телеканала Джетикс
Режиссёр: Колин Баддс, Джеффри Уокер
В ролях: Кариба Хейн, Фиби Тонкин, Энгус МакЛарен, Клер Холт, Берджесс Эбернети, Клео Мэсси, Алан Дэвид Ли, Джэйми Тимони, Индиана Эванс, Люк Митчел
Описание: Эмма, Клео и Рикки - обычные 16-летные девочки, выросшие на залитом солнцем Золотом побережье Австралии. Они живут обычной жизнью: пляж, обновки, мальчики до тех пор, когда они оказываются посреди океана и без горючего в лодке. Высадившись на таинственный и необитаемый остров Мако, в поисках высокого места, откуда можно бы было выйти на связь они оказываются в озере в древней пещере в жерле потухшего вулкана. Пытаясь найти дорогу из пещеры они решают выплыть через проход в глубине озера. И как раз в этот самый момент полная луна проходит над вулканом придавая воде озера удивительное свечение....Добравшись до дома без других приключений они обнаруживают, что теперь, если их кожа соприкасается с водой больше чем на 10 секунд они превращаются в самых настоящих русалок! Девочки решают сохранить это пока в секрете ото всех, хотя легкомысленность Клео заставляет её старого друга Льюса заподозрить неладное. А еще позже, в моменты опастности они обнаруживают, что теперь имеют удивительный контроль над водой: Эмма может замораживать воду внутри любых предметов за доли секунд, Клео - управлять формой, направлять струи воды в любом направлении и извлекать воду их воздуха, а Рикки может испарять и кипятить воду усилием воли....Теперь их жизнь не может оставаться как раньше.
Доп. информация: Пробный релиз. Купленный в Itunes
Сэмпл: https://yadi.sk/i/i5kALCpAqkshE
Качество: WEB-DLRip
Формат: MKV
Видео: MPEG Video, 720x576, 16:9, 25 fps, 5685 Кбит/сек
Аудио: MPEG Audio, 48,0 КГц, 2 канала, 237 Кбит/сек
Субтитры: отсутствуют

Список серий

01. «Metamorphosis ("Метаморфоза")»
02. «Pool Party ("Вечеринка у бассейна")»
03. «Catch of the Day ("Улов дня")»

MediaInfo

Общее
Уникальный идентификатор : 177913002513790396708900261161382393135 (0x85D8CC436AF97E2EA0B6599B3757352F)
Полное имя : D:\1\Downloads\H2O\H2O - Just Add Water - S01E01.mkv
Формат : Matroska
Версия формата : Version 1
Размер файла : 1,02 Гбайт
Продолжительность : 24 м.
Режим общего битрейта : Переменный
Общий поток : 6042 Кбит/сек
Дата кодирования : UTC 2016-04-03 14:34:22
Программа кодирования : mkvmerge v2.4.1 ('Use Me') built on Dec 5 2008 18:30:05
Библиотека кодирования : libebml v0.7.7 + libmatroska v0.8.1
Видео
Идентификатор : 1
Формат : MPEG Video
Версия формата : Version 2
Профиль формата : Main@Main
Параметр BVOP формата : Да
Параметр матрицы формата : Выборочная
Параметр GOP формата : Variable
Структура изображения : Frame
Идентификатор кодека : V_MPEG2
Идентификатор кодека/Информация : MPEG 1 or 2 Video
Продолжительность : 24 м.
Вид битрейта : Переменный
Битрейт : 5685 Кбит/сек
Максимальный битрейт : 8500 Кбит/сек
Ширина : 720 пикселей
Высота : 576 пикселей
Соотношение сторон : 16:9
Режим частоты кадров : Постоянный
Частота кадров : 25,000 кадров/сек
Стандарт вещания : PAL
Цветовое пространство : YUV
Субдискретизация насыщенности : 4:2:0
Битовая глубина : 8 бит
Тип развёртки : Чересстрочная
Порядок развёртки : Верхнее поле первое
Метод сжатия : С потерями
Бит/(Пиксели*Кадры) : 0.548
Временной код первого кадра : 09:59:59:20
Оригинал временного кода : Group of pictures header
Размер потока : 985 Мбайт (94%)
Default : Да
Forced : Нет
Аудио
Идентификатор : 2
Формат : MPEG Audio
Версия формата : Version 1
Профиль формата : Layer 3
Идентификатор кодека : A_MPEG/L3
Идентификатор кодека/Подсказка : MP3
Продолжительность : 24 м.
Вид битрейта : Переменный
Битрейт : 237 Кбит/сек
Каналы : 2 канала
Частота : 48,0 КГц
Метод сжатия : С потерями
Задержка видео : -287 мс.
Размер потока : 41,0 Мбайт (4%)
Язык : Russian
Default : Да
Forced : Нет

Скриншоты

Добавлены 1-3 серии
Вне форума [Профиль] [ЛС]
Показать сообщения:    
Ответить на тему

Текущее время: Сегодня 16:28

Часовой пояс: GMT + 3



Вы не можете начинать темы
Вы не можете отвечать на сообщения
Вы не можете редактировать свои сообщения
Вы не можете удалять свои сообщения
Вы не можете голосовать в опросах
Вы не можете прикреплять файлы к сообщениям
Вы не можете скачивать файлы