Сегодня идет свободное скачивание без начисления Download

Ночная смена / The Night Shift / Сезон: 2 / Серии: 1 из 14 (Марта Кулидж, Кевин Даулинг, Пьер Морель) [2015, драма, WEB-DL 720p] MVO (Flux-Team) + Original

Ответить на тему
 
Автор
Сообщение

Omen ®

Стаж: 5 лет 11 месяцев

Сообщений: 184329

Торрент-статистика

Пост 06-Апр-2016 00:00

[Цитировать]

Ночная смена / The Night Shift Год выпуска: 2014
Страна: США
Жанр: драма
Продолжительность: ~ 00:42:00
Перевод: Любительский (многоголосый, закадровый) [Flux-Team]-Режиссёр: Марта Кулидж, Кевин Даулинг, Пьер Морель-В ролях: Оуэн Мэкен, Фредди Родригес, Джилл Флинт, Кен Люн, Роберт Бэйли мл., Брендан Фер, Джинэнн Гуссен, ДжейАр Лемон и др.-Описание: Бывшие армейские врачи работают в отделении экстренной помощи города Сан Антонио. На спасение пациентов порой отпущены считанные секунды, и за это время докторам предстоит применить все свои полученные на поле боя навыки, чтобы сразиться с последним врагом - смертью.-Качество: WEB-DL 720p
Формат: MKV
Видео кодек: H.264
Аудио кодек: AC3
Видео: 1280x718 (16:9), 23.976 fps, ~4200 kbps avg, 0.190 bit/pixel
Аудио #1: 48 kHz, AC3, 6 ch, ~384.00 kbps avg [Flux-Team]
Аудио #2: 48 kHz, AC3, 6 ch, ~384.00 kbps avg Original
Субтитры: отсутствуют-Перевод: AlexandrineIl, ujazzi, Mariya1309, mrsZabini, grassy, kobra22, horse69, Mariya1309 и др.
Закадровый текст читали: Siviel, Die_Otter, Донцов, Tomas, Адам
Озвучено по заказу группы вконтакте @thenightshift1-Сэмпл / TV.com / TVRAGE / IMDB / КиноПоиск-

MediaInfo

Код:
General
Unique ID                   : 204880711265306860584120101936763601737 (0x9A2296F59E0086D4AF816A6F55418349)
Complete name               : D:\The.Night.Shift.S02.WEB-DL.720p.Rus.Eng-FluxTeam\The.Night.Shift.S02E01.WEB-DL.720p.Rus.Eng-FluxTeam.mkv
Format                      : Matroska
Format version              : Version 4 / Version 2
File size                   : 1.43 GiB
Duration                    : 42mn 16s
Overall bit rate            : 4 839 Kbps
Encoded date                : UTC 2016-04-05 20:15:24
Writing application         : mkvmerge v8.9.0 ('Father Daughter') 32bit
Writing library             : libebml v1.3.3 + libmatroska v1.4.4
Cover                       : Yes
Attachments                 : cover.jpg
Video
ID                          : 1
Format                      : AVC
Format/Info                 : Advanced Video Codec
Format profile              : High@L3.1
Format settings, CABAC      : No
Format settings, ReFrames   : 2 frames
Codec ID                    : V_MPEG4/ISO/AVC
Duration                    : 42mn 16s
Bit rate                    : 4 064 Kbps
Width                       : 1 280 pixels
Height                      : 718 pixels
Display aspect ratio        : 16:9
Frame rate mode             : Constant
Frame rate                  : 23.976 (23976/1000) fps
Color space                 : YUV
Chroma subsampling          : 4:2:0
Bit depth                   : 8 bits
Scan type                   : Progressive
Bits/(Pixel*Frame)          : 0.184
Stream size                 : 1.20 GiB (84%)
Language                    : English
Default                     : Yes
Forced                      : No
Color range                 : Limited
Color primaries             : BT.709
Transfer characteristics    : BT.709
Matrix coefficients         : BT.709
Audio #1
ID                          : 2
Format                      : AC-3
Format/Info                 : Audio Coding 3
Mode extension              : CM (complete main)
Format settings, Endianness : Big
Codec ID                    : A_AC3
Duration                    : 42mn 16s
Bit rate mode               : Constant
Bit rate                    : 384 Kbps
Channel(s)                  : 6 channels
Channel positions           : Front: L C R, Side: L R, LFE
Sampling rate               : 48.0 KHz
Frame rate                  : 31.250 fps (1536 spf)
Compression mode            : Lossy
Stream size                 : 116 MiB (8%)
Title                       : MVO [Flux-Team]
Language                    : Russian
Default                     : Yes
Forced                      : No
Audio #2
ID                          : 3
Format                      : AC-3
Format/Info                 : Audio Coding 3
Mode extension              : CM (complete main)
Format settings, Endianness : Big
Codec ID                    : A_AC3
Duration                    : 42mn 16s
Bit rate mode               : Constant
Bit rate                    : 384 Kbps
Channel(s)                  : 6 channels
Channel positions           : Front: L C R, Side: L R, LFE
Sampling rate               : 48.0 KHz
Frame rate                  : 31.250 fps (1536 spf)
Compression mode            : Lossy
Stream size                 : 116 MiB (8%)
Title                       : Original
Language                    : English
Default                     : No
Forced                      : No

Скриншоты

Внимание! Раздача ведется путем добавления новых серий

Внимание! Раздача ведётся путём добавления новых серий; при каждом добавлении создаётся новый торрент. Чтобы начать докачку новой серии, пользователям необходимо сделать следующее:
(1) остановить скачивание,
(2) удалить старый торрент-файл у себя из клиента (старые серии удалять не надо),
(3) скачать новый торрент-файл из раздачи и запустить его у себя в клиенте вместо старого, при этом указать клиенту путь в старую папку, куда и должно происходить скачивание новых серий.
Ваш клиент при этом должен произвести хеширование (проверку) старой папки (если не производит сам - помогите ему сделать это), и будет докачивать только те серии, которых у Вас ещё нет. Старые серии при этом не удаляются, а продолжают раздаваться!
Eсли Вы уже посмотрели и удалили старые серии, то предотвратить повторную закачку старых серий можно, сняв галочки в соответсвующих местах при запуске нового торрента. По возможности, желательно не удалять старые серии как можно дольше чтобы релизёр не столько продолжал раздавать старые серии, сколько сконцентрироваться на новых.
Вне форума [Профиль] [ЛС]
Показать сообщения:    
Ответить на тему

Текущее время: Сегодня 10:22

Часовой пояс: GMT + 3



Вы не можете начинать темы
Вы не можете отвечать на сообщения
Вы не можете редактировать свои сообщения
Вы не можете удалять свои сообщения
Вы не можете голосовать в опросах
Вы не можете прикреплять файлы к сообщениям
Вы не можете скачивать файлы