Сегодня идет свободное скачивание без начисления Download

Пять отвлекающих маневров / The Five Red Herrings / Сезон: 4 / Серии: 1-4 из 4 (Роберт Тронсон) [1975, Классический детектив, DVDRip] VO (имитация многоголосого) - constart

Ответить на тему
 
Автор
Сообщение

Omen ®

Стаж: 5 лет 9 месяцев

Сообщений: 184433

Торрент-статистика

Пост 06-Апр-2016 00:00

[Цитировать]

Пять отвлекающих маневров / The Five Red Herrings
Год выпуска: 1975
Страна: Великобритания
Жанр: Классический детектив
Продолжительность: 4x49 мин
Перевод: Любительский (одноголосый закадровый) имитация многоголосого - constart
Режиссёр: Роберт Тронсон
В ролях: Ian Carmichael
Glyn Houston
Roy Boutcher
David Rintoul
Michael Elder
Russell Hunter
John Junkin
Robert James
Clive Graham
Michael Sheard
David McKail
Susan Macready
Jake D'Arcy
Julie Peasgood
Описание: В Галлоуэйе, одном из живописнейших уголков на юге Шотландии, где частенько любил отдыхать лорд Питер Уимзи, при весьма странных обстоятельствах со скалы срывается художник. Уимзи много раз пытается представить себе, как тот делает роковой шаг, оступается и летит вниз. Но не может. Хотя на первый взгляд все и выглядит как самоубийство, у Питера Уимзи имеются веские причины в этом усомниться. Под подозрение попадают шесть человек, причем ни один из них не испытывает сожаления о гибели своего товарища… Пятеро из них невиновны.
Доп. информация: Огромная благодарность за перевод Okline, marina77eliseeva!
Сэмпл: http://sendfile.su/1221808
Качество: DVDRip
Формат: AVI
Видео: XviD, 720 x 540, 4:3, 29.970 fps, 1732 Кбит/сек
Аудио: AC3, 48.0 KHz, 2 канала, 224 Kbps
Субтитры: Отсутствуют

Список серий

Мини-сериал из 4 эпизодов

MediaInfo

Формат : AVI
Формат/Информация : Audio Video Interleave
Размер файла : 695 Мбайт
Продолжительность : 49 м.
Общий поток : 1967 Кбит/сек
Видео
Идентификатор : 0
Формат : MPEG-4 Visual
Профиль формата : Advanced Simple@L5
Параметр BVOP формата : 2
Параметр QPel формата : Нет
Параметр GMC формата : Без точки перехода
Параметр матрицы формата : Default (H.263)
Режим смешивания : Сжатый битовый поток
Идентификатор кодека : XVID
Идентификатор кодека/Подсказка : XviD
Продолжительность : 49 м.
Битрейт : 1732 Кбит/сек
Ширина : 720 пикселей
Высота : 540 пикселей
Соотношение сторон : 4:3
Частота кадров : 29,970 кадров/сек
Цветовое пространство : YUV
Субдискретизация насыщенности : 4:2:0
Битовая глубина : 8 бит
Тип развёртки : Прогрессивная
Метод сжатия : С потерями
Бит/(Пиксели*Кадры) : 0.149
Размер потока : 611 Мбайт (88%)
Библиотека кодирования : XviD 64
Аудио
Идентификатор : 1
Формат : AC-3
Формат/Информация : Audio Coding 3
Расширение режима : CM (complete main)
Параметр Endianness формата : Big
Идентификатор кодека : 2000
Продолжительность : 49 м.
Вид битрейта : Постоянный
Битрейт : 224 Кбит/сек
Каналы : 2 канала
Расположение каналов : Front: L R
Частота : 48,0 КГц
Битовая глубина : 16 бит
Метод сжатия : С потерями
Размер потока : 79,1 Мбайт (11%)
Выравнивание : Соединение по промежуткам
Продолжительность промежутка : 33 мс. (1,00 видеокадр)
Время предзагрузки промежутка : 512 мс.

Скриншоты












Вне форума [Профиль] [ЛС]
Показать сообщения:    
Ответить на тему

Текущее время: Сегодня 19:30

Часовой пояс: GMT + 3



Вы не можете начинать темы
Вы не можете отвечать на сообщения
Вы не можете редактировать свои сообщения
Вы не можете удалять свои сообщения
Вы не можете голосовать в опросах
Вы не можете прикреплять файлы к сообщениям
Вы не можете скачивать файлы