Сегодня идет свободное скачивание без начисления Download

Подопытные / Lab Rats / Сезон: 3 / Серии: 1-26 из 26 (Крис Петерсон, Брайан Мур) [2014, Комедия, WEB-DLRip] Dub (Невафильм) + Original

Ответить на тему
 
Автор
Сообщение

Omen ®

Стаж: 5 лет 9 месяцев

Сообщений: 184433

Торрент-статистика

Пост 05-Апр-2016 21:00

[Цитировать]

Подопытные / Lab Rats
Год выпуска: 2014
Страна: США
Жанр: Комедия
Продолжительность: 00:22:00
Перевод: Профессиональный (дублированный) Невафильм
Режиссёр: Крис Петерсон, Брайан Мур
В ролях: Билли Ангер
Спенсер Болдмэн
Келли Бёрглунд
Тайрел Джексон Уильямс
Хэл Спаркс
Мэйл Флэнеган
Энджел Паркер
Уилл Форте
Джереми Кент Джексон
Мэдисон Петтис
Описание: Эти трое подростков — результат уникального эксперимента, проведённого изобретателем Дональдом Дэвенпортом. Адам может подбросить в воздух автомобиль, словно пушинку, Чейс обладает суперинтеллектом, а Бри способна бегать со скоростью молнии. А вот родной сын Дональда Лео — обычный школьник, который не может похвастаться никакими сверхспособностями. Но однажды, случайно проникнув в секретную лабораторию отца, паренёк знакомится с юными супергероями. Лео убеждает Дональда, что ребятам нужно общение со сверстниками и приводит их в школу. Увенчается ли успехом и этот эксперимент?
Сэмпл: http://multi-up.com/1056866
Качество: WEB-DLRip
Формат: AVI
Видео: MPEG4, DivX 5, 720x400 (16:9), 23.976 fps, 1 521 Kbps (0.220 bit/pixel)
Аудио: AC-3, 48.0 KHz, 2 ch, 192 Kbps, CBR - русский
Аудио 2: AC-3, 48.0 KHz, 6 ch, 384 Kbps, CBR
Субтитры: нет

MediaInfo

Общее
Полное имя : K:\3x01-02 - Sink Or Swim.avi
Формат : AVI
Формат/Информация : Audio Video Interleave
Размер файла : 681 Мбайт
Продолжительность : 45 м.
Общий поток : 2111 Кбит/сек
Название фильма : Подопытные. Сезон 3 / Lab Rats. Season 3 (2014)
Программа кодирования : VirtualDubMod 1.5.10.2 (build 2540/release)
Библиотека кодирования : VirtualDubMod build 2540/release
Авторское право : miha2154
Видео
Идентификатор : 0
Формат : MPEG-4 Visual
Профиль формата : Advanced Simple@L5
Параметр BVOP формата : 1
Параметр QPel формата : Нет
Параметр GMC формата : Без точки перехода
Параметр матрицы формата : Выборочная
Идентификатор кодека : DX50
Идентификатор кодека/Подсказка : DivX 5
Продолжительность : 45 м.
Битрейт : 1521 Кбит/сек
Ширина : 720 пикселей
Высота : 400 пикселей
Соотношение сторон : 16:9
Частота кадров : 23,976 кадра/сек
Цветовое пространство : YUV
Субдискретизация насыщенности : 4:2:0
Битовая глубина : 8 бит
Тип развёртки : Прогрессивная
Метод сжатия : С потерями
Бит/(Пиксели*Кадры) : 0.220
Размер потока : 491 Мбайт (72%)
Библиотека кодирования : XviD 65
Аудио #1
Идентификатор : 1
Формат : AC-3
Формат/Информация : Audio Coding 3
Расширение режима : CM (complete main)
Параметр Endianness формата : Big
Идентификатор кодека : 2000
Продолжительность : 45 м.
Вид битрейта : Постоянный
Битрейт : 192 Кбит/сек
Каналы : 2 канала
Расположение каналов : Front: L R
Частота : 48,0 КГц
Метод сжатия : С потерями
Размер потока : 61,9 Мбайт (9%)
Выравнивание : Разделение по промежуткам
Продолжительность промежутка : 42 мс. (1,00 видеокадр)
Время предзагрузки промежутка : 500 мс.
Заголовок : Профессиональный (полное дублирование) Disney
Аудио #2
Идентификатор : 2
Формат : AC-3
Формат/Информация : Audio Coding 3
Расширение режима : CM (complete main)
Параметр Endianness формата : Big
Идентификатор кодека : 2000
Продолжительность : 45 м.
Вид битрейта : Постоянный
Битрейт : 384 Кбит/сек
Каналы : 6 каналов
Расположение каналов : Front: L C R, Side: L R, LFE
Частота : 48,0 КГц
Метод сжатия : С потерями
Размер потока : 124 Мбайт (18%)
Выравнивание : Разделение по промежуткам
Продолжительность промежутка : 42 мс. (1,00 видеокадр)
Время предзагрузки промежутка : 500 мс.
Заголовок : Английский
Вне форума [Профиль] [ЛС]
Похожие темы
Форум Тема Автор Торрент Отв. Посл. сообщение
./templates/default/images/folder_dl.gif Медицина и Здоровье Игорь Подопригора | Голодание – сильнее таблеток! Исцеление, очищение, продление жизни тела и укрепление духа (2012) [PDF] UndegraundMen
1 | 0

0 | 1090

8

2013-11-08 11:00
UndegraundMen Последнее
Показать сообщения:    
Ответить на тему

Текущее время: Сегодня 03:12

Часовой пояс: GMT + 3



Вы не можете начинать темы
Вы не можете отвечать на сообщения
Вы не можете редактировать свои сообщения
Вы не можете удалять свои сообщения
Вы не можете голосовать в опросах
Вы не можете прикреплять файлы к сообщениям
Вы не можете скачивать файлы