Сегодня идет свободное скачивание без начисления Download

Горизонт / Station Horizon / Сезон: 1 / Серии: 1-7 из 7 (Ромен Граф, Пьер-Адриан Ирле) [2015, драма, SATRip] MVO (Sony) + Original

Ответить на тему
 
Автор
Сообщение

Omen ®

Стаж: 5 лет 11 месяцев

Сообщений: 184329

Торрент-статистика

Пост 05-Апр-2016 18:03

[Цитировать]

Горизонт / Station Horizon
Год выпуска: 2015
Страна: Швейцария
Жанр: драма
Продолжительность: 00:46:00
Перевод: Профессиональный (многоголосый закадровый) Sony
Режиссёр: Ромен Граф, Пьер-Адриан Ирле
В ролях: Бернард Йерле, Гаспар Беш, Александра Вандернот, Лавиния Лонги, Жан-Марк Морел, Жан-Пьер Гос, Тьерри Мери
Описание: Действие сериала «Горизонт» происходит в швейцарском кантоне Вале, где расположился вымышленный городок Горизонвилль. Среди живописных ландшафтов горной местности живет свободолюбивое сообщество, создавшее у себя в городе атмосферу Дикого Запада. Здесь можно увидеть типичные американские автомобили и байкеров, зайти в стриптиз-бар и послушать музыку кантри. Именно сюда, в родной Горизонвилль, возвращается бывший заключенный Йорис (Бернард Йерле), чтобы начать новую жизнь. Мужчине предстоит не очень приятная встреча с родными, бывшим другом и красавицей, в которую он был влюблен в молодости...
Сэмпл: http://multi-up.com/1096158
Качество: SATRip
Формат: AVI
Видео: MPEG4, DivX 5, 704x400 (16:9), 25.000 fps, 1 400 Kbps (0.199 bit/pixel)
Аудио: MP3, 48.0 KHz, 2 ch, 128 Kbps, CBR - русский
Аудио 2: MP3, 48.0 KHz, 2 ch, 128 Kbps, CBR - французский
Субтитры: нет

MediaInfo

Общее
Полное имя : M:\1x01 - Deuxieme chance (Второй шанс).avi
Формат : AVI
Формат/Информация : Audio Video Interleave
Размер файла : 553 Мбайт
Продолжительность : 46 м.
Общий поток : 1671 Кбит/сек
Название фильма : Горизонт. Сезон 1 / Station Horizon. Saison 1 (2015)
Программа кодирования : VirtualDubMod 1.5.10.2 (build 2540/release)
Библиотека кодирования : VirtualDubMod build 2540/release
Авторское право : miha2154
Видео
Идентификатор : 0
Формат : MPEG-4 Visual
Профиль формата : Advanced Simple@L5
Параметр BVOP формата : 1
Параметр QPel формата : Нет
Параметр GMC формата : Без точки перехода
Параметр матрицы формата : Выборочная
Идентификатор кодека : DX50
Идентификатор кодека/Подсказка : DivX 5
Продолжительность : 46 м.
Битрейт : 1400 Кбит/сек
Ширина : 704 пикселя
Высота : 400 пикселей
Соотношение сторон : 16:9
Частота кадров : 25,000 кадров/сек
Цветовое пространство : YUV
Субдискретизация насыщенности : 4:2:0
Битовая глубина : 8 бит
Тип развёртки : Прогрессивная
Метод сжатия : С потерями
Бит/(Пиксели*Кадры) : 0.199
Размер потока : 464 Мбайт (84%)
Библиотека кодирования : XviD 65
Аудио #1
Идентификатор : 1
Формат : MPEG Audio
Версия формата : Version 1
Профиль формата : Layer 3
Режим : Joint stereo
Расширение режима : MS Stereo
Идентификатор кодека : 55
Идентификатор кодека/Подсказка : MP3
Продолжительность : 46 м.
Вид битрейта : Постоянный
Битрейт : 128 Кбит/сек
Каналы : 2 канала
Частота : 48,0 КГц
Метод сжатия : С потерями
Размер потока : 42,4 Мбайт (8%)
Выравнивание : Разделение по промежуткам
Продолжительность промежутка : 40 мс. (1,00 видеокадр)
Время предзагрузки промежутка : 500 мс.
Заголовок : Профессиональный (многоголосый закадровый) Sony
Аудио #2
Идентификатор : 2
Формат : MPEG Audio
Версия формата : Version 1
Профиль формата : Layer 3
Режим : Joint stereo
Расширение режима : MS Stereo
Идентификатор кодека : 55
Идентификатор кодека/Подсказка : MP3
Продолжительность : 46 м.
Вид битрейта : Постоянный
Битрейт : 128 Кбит/сек
Каналы : 2 канала
Частота : 48,0 КГц
Метод сжатия : С потерями
Размер потока : 42,4 Мбайт (8%)
Выравнивание : Разделение по промежуткам
Продолжительность промежутка : 40 мс. (1,00 видеокадр)
Время предзагрузки промежутка : 500 мс.
Заголовок : Французский

Скриншоты


Вне форума [Профиль] [ЛС]
Показать сообщения:    
Ответить на тему

Текущее время: Сегодня 20:55

Часовой пояс: GMT + 3



Вы не можете начинать темы
Вы не можете отвечать на сообщения
Вы не можете редактировать свои сообщения
Вы не можете удалять свои сообщения
Вы не можете голосовать в опросах
Вы не можете прикреплять файлы к сообщениям
Вы не можете скачивать файлы