Сегодня идет свободное скачивание без начисления Download

Капитал / Capital / Сезон: 1 / Серии: 1-3 из 3 (Эрос Лин) [2015, Драма, HDTV 720p] Original + Rus Subs (yalkau, lyutemoki)

Ответить на тему
 
Автор
Сообщение

Omen ®

Стаж: 5 лет 6 месяцев

Сообщений: 186946

Торрент-статистика

Пост 05-Апр-2016 15:33

[Цитировать]

Капитал / Capital
Год выпуска: 2015
Страна: Великобритания
Жанр: Драма
Продолжительность: 00:58:00
Перевод: Субтитры yalkau, lyutemoki
Режиссёр: Эрос Лин
В ролях: Тоби Джонс, Джемма Джонс, Адиль Ахтар, Дэнни Эшок, Шабана Азми, Зринка Цвитешич, Брайан Дик, Роберт Эммс, Мона Гудвин, Хамза Джитуа
Описание: Действие драматического сериала «Капитал» развивается в вымышленном, ничем не примечательном пригороде Лондона, в котором не очень давно начали расти цены на недвижимость. Респектабельные дома населяют люди из разных социальных слоев, среди них банкир Роджер Юнт (Тоби Джонс), который посчитал покупку удачным вложением, пожилая вдова Петуния (Джемма Джонс), прожившая в своей квартире долгие годы, домохозяйка, которая с детства живет в этом районе. И вот однажды все жители улицы получают странные открытки с одинаковым текстом: «Мы хотим то, что у вас есть»...
Мини-сериал снят по книге «Капитал» Джона Ланчестера, повествующей о жизни самых разных обитателей Пепис-Роуд, улицы в одном из районов Южного Лондона во время финансового кризиса 2008 года, и в которой предлагается Диккенсовский взгляд на жителей Лондона и его классовую систему.
Сэмпл: https://yadi.sk/i/-Kg6U5vbqkcP5
Качество: HDTV 720p
Контейнер: MKV
Видео: Advanced Video Codec, 1280x720, 16:9, 25.000 fps, 2 307 Kbps
Аудио: Английский, Advanced Audio Code, 48.0 KHz, 2 канала, 93.5 Kbps
Субтитры: yalkau, lyutemoki

MediaInfo

General
Complete name : E:\Capital\Capital pt1of3 (24 November 2015) HDTV 720p.mp4
Format : MPEG-4
Format profile : Base Media
Codec ID : isom (isom/iso2/avc1/mp41)
File size : 1 006 MiB
Duration : 58mn 28s
Overall bit rate mode : Variable
Overall bit rate : 2 406 Kbps
Collection : Capital
Season : 1
Album : Capital
Album/Performer : BBC TV
Part : 1
Part/Position : 1
Track name : Episode 1
Track name/Position : 1
Grouping : Drama
Performer : BBC One
Composer : BBC iPlayer
Genre : Drama
ContentType : TV Show
Description : On one day, the people of one South London street all receive an anonymous postcard.
Recorded date : UTC 2015-11-24 21:00:00
Tagged date : UTC 2015-11-24 23:00:06
Writing application : Lavf55.33.100
Copyright : 2015 British Broadcasting Corporation, all rights reserved
Cover : Yes
Lyrics : To the outside world, the residents of Pepys Road have it all. House prices have rocketed, creating a street of multi-million pound homes... However, life's other problems don't go away just because you've won the property lottery. / / Petunia is growing increasingly worried that her dizzy spells don't seem to be going away, but doesn't want to turn to her daughter Mary for help. Meanwhile, Roger, banker and supposed family man, is hoping that this year's bonus might bring him and his wife Arabella happiness - or at least be able to cover the cost of Bogdan and all the renovations he's been doing on the house. / / Elsewhere, local shopkeeper Ahmed is hoping that his brothers Shahid and Usman might finally start to take some responsibility and make something of their lives. While Quentina, traffic warden and asylum seeker, is just looking to keep her head down - while being abused by the Pepys Road residents she is ticketing. All of this is watched by the successful but secretive Smitty, an artist who shares his own personal connection to Pepys Road. / / Normal life on a normal street. At least, that is, until a mysterious note bearing the words 'we want what you have' is dropped through every letterbox. Who has sent the message? And are they still watching the residents? Before long, the ripples caused by the note will have touched every corner of the community - and the residents of Pepys Road will see their lives transformed. / / EPISODE / http://www.bbc.co.uk/iplayer/episode/b06qrqlf / / SERIES / http://www.bbc.co.uk/programmes/b06r3jww
Comment : On one day, the people of one South London street all receive an anonymous postcard.
Part_ID : s01e01
TVNetworkName : BBC One
Video
ID : 1
Format : AVC
Format/Info : Advanced Video Codec
Format profile : High@L4.1
Format settings, CABAC : Yes
Format settings, ReFrames : 2 frames
Codec ID : avc1
Codec ID/Info : Advanced Video Coding
Duration : 58mn 28s
Bit rate mode : Variable
Bit rate : 2 307 Kbps
Maximum bit rate : 3 500 Kbps
Width : 1 280 pixels
Height : 720 pixels
Display aspect ratio : 16:9
Frame rate mode : Constant
Frame rate : 25.000 fps
Color space : YUV
Chroma subsampling : 4:2:0
Bit depth : 8 bits
Scan type : Progressive
Bits/(Pixel*Frame) : 0.100
Stream size : 965 MiB (96%)
Audio
ID : 2
Format : AAC
Format/Info : Advanced Audio Codec
Format profile : LC
Codec ID : 40
Duration : 58mn 28s
Bit rate mode : Constant
Bit rate : 93.5 Kbps
Channel(s) : 2 channels
Channel positions : Front: L R
Sampling rate : 48.0 KHz
Frame rate : 46.875 fps (1024 spf)
Compression mode : Lossy
Stream size : 39.1 MiB (4%)
Default : Yes
Alternate group : 1

Скриншоты

Внимание! Раздача ведётся путём добавления новых серий

Внимание! Раздача ведётся путём добавления новых серий; при каждом добавлении создаётся новый торрент. Чтобы начать докачку новой серии, пользователям необходимо сделать следующее:
(1) остановить скачивание,
(2) удалить старый торрент у себя из клиента (старые серии удалять не надо),
(3) скачать новый торрент и запустить его у себя в клиенте вместо старого, при этом указать клиенту путь в старую папку куда и должно происходить скачивание новых серий.
Ваш клиент при этом должен произвести хеширование (проверку) старой папки (если не производит сам - помогите ему сделать это), и будет докачивать только те серии которых у вас ещё нет. Старые серии при этом не удаляются, а продолжают раздаваться!
Eсли вы уже удалили старые серии, то предотвратить повторную закачку старых серий можно, отжав галочку в соответствующих местах при запуске нового торрента. По возможности, желательно не удалять старые серии как можно дольше чтобы релизёр не столько продолжал раздавать старые серии, а смог сконцентрироваться на новых.
Вне форума [Профиль] [ЛС]
Показать сообщения:    
Ответить на тему

Текущее время: Сегодня 14:30

Часовой пояс: GMT + 3



Вы не можете начинать темы
Вы не можете отвечать на сообщения
Вы не можете редактировать свои сообщения
Вы не можете удалять свои сообщения
Вы не можете голосовать в опросах
Вы не можете прикреплять файлы к сообщениям
Вы не можете скачивать файлы