Сегодня идет свободное скачивание без начисления Download

Укушенная / Bitten / Сезон: 1 / Серии: 1-13 из 13 (Брэд Тернер, Джеймс Даннисон, Пол Фокс) [2014, Ужасы, фэнтези, драма, WEB-DLRip] MVO (LostFilm) + Original

Ответить на тему
 
Автор
Сообщение

Omen ®

Стаж: 5 лет 7 месяцев

Сообщений: 185427

Торрент-статистика

Пост 04-Апр-2016 18:00

[Цитировать]

Укушенная | Bitten- Год выпуска: 2014
Страна: Канада
Жанр: Ужасы, фэнтези, драма
Продолжительность: 00:43:00
Перевод: Профессиональный (многоголосый закадровый) LostFilm--Режиссёр: Брэд Тернер, Джеймс Даннисон, Пол Фокс
В ролях: Лора Вандервурт, Грейстон Холт, Грег Брайк, Пол Грин, Стив Ланд, Майкл Ксавьер, Дженелл Уильямс, Натали Браун, Майкл Лакетт, Фиона Хайети др.-Описание: Елена — единственная в мире женщина-оборотень. Она пытается жить обычной жизнью в Торонто, где работает фотографом, общается с друзьями, заводит отношения. Свою тайну Елена, разумеется, никому не открывает и со стаей давно не поддерживает никаких контактов. Но однажды в городе происходит событие, которое сулит вервольфам серьезные проблемы. Чтобы их избежать, оборотни должны объединить свои силы и найти того, кто перешел им дорогу.
Стая заявляется в город и выдергивает Елену из ее размеренной жизни. Теперь ей предстоит столкнуться с прошлым и, на время забыв про обычную жизнь, мобилизовать свою темную сторону, чтобы помочь стае разобраться с возникшей проблемой и сохранить собственные секреты...--Релиз от
Рип: Guest91
Работа со звуком: Marchelush
--Сэмпл: http://multi-up.com/1095984-Качество: WEB-DLRip
Формат: AVI
Видео: XVID, 720x400 (16:9), 23.976 fps, 2000 kbps avg, 0.29 bit/pixel
Аудио Rus: AC3 Dolby Digital, 48.0 KHz, 6 channels, 384 kbps avg
Аудио Eng: AC3 Dolby Digital, 48.0 KHz, 6 channels, 384 kbps avg
Субтитры: отсутствуют

MediaInfo

General
Complete name : E:\Укушенная (Сезон 1) LostFilm\Bitten.s01e01.web-dlrip.casstudio.avi
Format : AVI
Format/Info : Audio Video Interleave
File size : 859 MiB
Duration : 43mn 12s
Overall bit rate : 2 779 Kbps
Writing application : VirtualDubMod 1.5.10.2 (build 2540/release)
Writing library : VirtualDubMod build 2540/release
Video
ID : 0
Format : MPEG-4 Visual
Format profile : Advanced Simple@L5
Format settings, BVOP : 1
Format settings, QPel : No
Format settings, GMC : No warppoints
Format settings, Matrix : Default (MPEG)
Codec ID : XVID
Codec ID/Hint : XviD
Duration : 43mn 12s
Bit rate : 1 997 Kbps
Width : 720 pixels
Height : 400 pixels
Display aspect ratio : 16:9
Frame rate : 23.976 (23976/1000) fps
Color space : YUV
Chroma subsampling : 4:2:0
Bit depth : 8 bits
Scan type : Progressive
Compression mode : Lossy
Bits/(Pixel*Frame) : 0.289
Stream size : 617 MiB (72%)
Writing library : XviD 65
Audio #1
ID : 1
Format : AC-3
Format/Info : Audio Coding 3
Mode extension : CM (complete main)
Format settings, Endianness : Big
Codec ID : 2000
Duration : 43mn 12s
Bit rate mode : Constant
Bit rate : 384 Kbps
Channel(s) : 6 channels
Channel positions : Front: L C R, Side: L R, LFE
Sampling rate : 48.0 KHz
Frame rate : 31.250 fps (1536 spf)
Compression mode : Lossy
Stream size : 119 MiB (14%)
Alignment : Split accross interleaves
Interleave, duration : 42 ms (1.00 video frame)
Interleave, preload duratio : 500 ms
Audio #2
ID : 2
Format : AC-3
Format/Info : Audio Coding 3
Mode extension : CM (complete main)
Format settings, Endianness : Big
Codec ID : 2000
Duration : 43mn 12s
Bit rate mode : Constant
Bit rate : 384 Kbps
Channel(s) : 6 channels
Channel positions : Front: L C R, Side: L R, LFE
Sampling rate : 48.0 KHz
Frame rate : 31.250 fps (1536 spf)
Compression mode : Lossy
Stream size : 119 MiB (14%)
Alignment : Split accross interleaves
Interleave, duration : 42 ms (1.00 video frame)
Interleave, preload duratio : 500 ms

Скриншоты

-

Ссылка на предыдущие и альтернативные раздачи

[url=tracker.php?f=189,2366&nm=Bitten]http:///*spam*//forum/tracker.php?f=189,2366&nm=Bitten[/url]
-
Вне форума [Профиль] [ЛС]
Показать сообщения:    
Ответить на тему

Текущее время: Сегодня 13:50

Часовой пояс: GMT + 3



Вы не можете начинать темы
Вы не можете отвечать на сообщения
Вы не можете редактировать свои сообщения
Вы не можете удалять свои сообщения
Вы не можете голосовать в опросах
Вы не можете прикреплять файлы к сообщениям
Вы не можете скачивать файлы