Сегодня идет свободное скачивание без начисления Download

Комиссар полиции Мартин Бек / Beck / Сезон: 5 / Серии: 1-4 из 4 (Стефан Апельгрен, Мартен Клинберг) [2015, Триллер, криминал, детектив, HDTVRip 720p] VO (Project Web Mania) + Original + Subs (Rus)

Ответить на тему
 
Автор
Сообщение

Omen ®

Стаж: 5 лет 6 месяцев

Сообщений: 186946

Торрент-статистика

Пост 03-Апр-2016 03:00

[Цитировать]

Комиссар полиции Мартин Бек | Beck-- Год выпуска: 2015 (5 сезон)
Страна: Швеция, Германия, Дания
Жанр: Триллер, криминал, детектив
Продолжительность: ~ 01:30:00
Перевод: Любительский одноголосый закадровый (Project Web Mania)
Субтитры: Русские (Vallhall)--Режиссёр: Стефан Апельгрен / Stephan Apelgren, Мартен Клинберг / Mårten Klingberg--В ролях: Peter Haber (Комиссар Мартин Бек), Mikael Persbrandt (Гунвальд Ларссон), Måns Nathanaelson (Оскар Бергман), Jonas Karlsson (Клас Фреден), Sofia Zouagui (Петра Виделл), Rebecka Hemse (Ингер), Elmira Arikan (Айда), Anu Sinisalo (Гунилла Урст), Anna Asp (Дженни Боден) , Ingvar Hirdwall (Граннен) и др.--Описание: Детективный сериал «Комиссар полиции Мартин Бек» снят по мотивам произведений Пера Валё и Май Шёвалль. Шведский детектив Мартин Бек уже давно занял достойное место среди всемирно известных сыщиков наряду с Шерлоком Холмсом и инспектором Мегрэ. Настоящий нордический характер, помноженный на уникальные дедуктивные способности — что еще нужно для того, чтобы ни одно преступление не осталось нераскрытым? Впрочем, он обычный человек, который расстался с женой, не находит понимания у детей, часто простужается, много курит, и по утрам внимательно прислушивается — где кольнет на этот раз?..--
--

Список серий

01. Номер 302 | Rum 302

Молодая девушка задушена в гостиничном номере. Расследование приводит Бека и Гунвальда к площади Стуре, ночной жизни Стокгольма и ее изнанке.

02. Семья | Familjen

Известный криминальный авторитет убит снайпером на глазах его семьи.

03. Вторжение | Invasionen

Тело мужчины найдено захороненным в лесу. Очередное убийство выводит расследование на версию о связи жертв с исламистской террористической организацией.

04. Убийство в больнице | Sjukhusmorden

Пожилая женщина умирает в стокгольмской больнице. Как оказалось, она страдала от неизлечимой болезни, но сын отказывается верить в то, что именно она послужило причиной ее смерти.
Качество: HDTVRip 720p
Формат: MKV
Видео кодек: H.264
Аудио кодек: AC3
Видео: MPEG-4 AVC, 1280x720 (16:9), 25.000 fps, ~ 4000 kbps, 0.167 bpp
Аудио 1: [Русский] AC3, 48 kHz, 2 ch, 192 kbps
Аудио 2: [Шведский] AC3, 48 kHz, 6 ch, 384 kbps
Субтитры: Русские (SRT)
-- --

MediaInfo

Код:
General
Unique ID                   : 206792908726443110303725280808367264566 (0x9B92DD92BD598DD6AFA16D50C43F9336)
Complete name               : I:\...\Beck.s05.720p.HDTV_MediaClub\Beck.S05E01.Rum.302.720p.HDTV.Rus.Swe_MediaClub.mkv
Format                      : Matroska
Format version              : Version 4 / Version 2
File size                   : 2.66 GiB
Duration                    : 1h 25mn
Overall bit rate            : 4 429 Kbps
Movie name                  : ReJIiZ MediaClub
Encoded date                : UTC 2016-03-29 21:30:20
Writing application         : mkvmerge v7.5.0 ('Glass Culture') 64bit built on Jan  4 2015 16:48:44
Writing library             : libebml v1.3.1 + libmatroska v1.4.2
Video
ID                          : 1
Format                      : AVC
Format/Info                 : Advanced Video Codec
Format profile              : High@L4.1
Format settings, CABAC      : Yes
Format settings, ReFrames   : 5 frames
Codec ID                    : V_MPEG4/ISO/AVC
Duration                    : 1h 25mn
Bit rate                    : 3 851 Kbps
Width                       : 1 280 pixels
Height                      : 720 pixels
Display aspect ratio        : 16:9
Frame rate mode             : Constant
Frame rate                  : 25.000 fps
Color space                 : YUV
Chroma subsampling          : 4:2:0
Bit depth                   : 8 bits
Scan type                   : Progressive
Bits/(Pixel*Frame)          : 0.167
Stream size                 : 2.31 GiB (87%)
Writing library             : x264 core 142 r2491 24e4fed
Encoding settings           : cabac=1 / ref=5 / deblock=1:-2:-2 / analyse=0x3:0x113 / me=umh / subme=8 / psy=1 / psy_rd=1.05:0.00 / mixed_ref=1 / me_range=16 / chroma_me=1 / trellis=1 / 8x8dct=1 / cqm=0 / deadzone=21,11 / fast_pskip=1 / chroma_qp_offset=-2 / threads=18 / lookahead_threads=3 / sliced_threads=0 / nr=0 / decimate=1 / interlaced=0 / bluray_compat=0 / constrained_intra=0 / bframes=3 / b_pyramid=2 / b_adapt=2 / b_bias=0 / direct=3 / weightb=1 / open_gop=0 / weightp=2 / keyint=250 / keyint_min=25 / scenecut=40 / intra_refresh=0 / rc_lookahead=50 / rc=crf / mbtree=1 / crf=16.0 / qcomp=0.60 / qpmin=0 / qpmax=69 / qpstep=4 / ip_ratio=1.40 / aq=1:0.70
Default                     : Yes
Forced                      : No
Audio #1
ID                          : 2
Format                      : AC-3
Format/Info                 : Audio Coding 3
Mode extension              : CM (complete main)
Format settings, Endianness : Big
Codec ID                    : A_AC3
Duration                    : 1h 25mn
Bit rate mode               : Constant
Bit rate                    : 192 Kbps
Channel(s)                  : 2 channels
Channel positions           : Front: L R
Sampling rate               : 48.0 KHz
Frame rate                  : 31.250 fps (1536 spf)
Compression mode            : Lossy
Stream size                 : 118 MiB (4%)
Title                       : Project Web Mania
Language                    : Russian
Default                     : Yes
Forced                      : No
Audio #2
ID                          : 3
Format                      : AC-3
Format/Info                 : Audio Coding 3
Mode extension              : CM (complete main)
Format settings, Endianness : Big
Codec ID                    : A_AC3
Duration                    : 1h 25mn
Bit rate mode               : Constant
Bit rate                    : 384 Kbps
Channel(s)                  : 6 channels
Channel positions           : Front: L C R, Side: L R, LFE
Sampling rate               : 48.0 KHz
Frame rate                  : 31.250 fps (1536 spf)
Compression mode            : Lossy
Stream size                 : 236 MiB (9%)
Language                    : Swedish
Default                     : No
Forced                      : No
Text
ID                          : 4
Format                      : UTF-8
Codec ID                    : S_TEXT/UTF8
Codec ID/Info               : UTF-8 Plain Text
Duration                    : 1h 25mn
Bit rate                    : 98 bps
Count of elements           : 815
Stream size                 : 61.3 KiB (0%)
Title                       : Vallhall
Language                    : Russian
Default                     : No
Forced                      : No
[/spoiler]
--
Вне форума [Профиль] [ЛС]
Показать сообщения:    
Ответить на тему

Текущее время: Сегодня 16:00

Часовой пояс: GMT + 3



Вы не можете начинать темы
Вы не можете отвечать на сообщения
Вы не можете редактировать свои сообщения
Вы не можете удалять свои сообщения
Вы не можете голосовать в опросах
Вы не можете прикреплять файлы к сообщениям
Вы не можете скачивать файлы