Сегодня идет свободное скачивание без начисления Download

Красные браслеты / Club der roten Bänder / Сезон: 1 / Серии: 1 из 10 (Сабина Бернарди, Феликс Биндер, Рихард Хубер) [2015, драма, HDTVRip] MVO (ViruseProject)

Ответить на тему
 
Автор
Сообщение

Omen ®

Стаж: 6 лет 1 месяц

Сообщений: 184308

Торрент-статистика

Пост 02-Апр-2016 21:00

[Цитировать]

Красные браслеты / Club der roten Bänder Год выпуска: 2015
Страна: Германия
Жанр: драма
Продолжительность: ~45 мин
Перевод: Профессиональный (многоголосый закадровый) ViruseProject
Режиссёр: Сабина Бернарди, Феликс Биндер, Рихард Хубер
В ролях: Тим Оливер Шульц, Дамиан Хардунг, Луизе Бэфорт, Иво Кортланг и др.
Описание: Сериал рассказывает о жизни обычных подростков, из-за болезни вынужденных провести в больнице многие месяцы и даже годы. Чтобы хоть как-то скрасить больничные будни, они решают основать своего рода клуб из шести человек: лидера, второго лидера, умника, красавчика, девушки и незаменимого «доброго духа». Так было положено начало крепкой дружбе, благодаря которой «Красные браслеты» смогли справиться со многими трудностями, поджидающими их в больнице. Немецкая адаптация каталонского телесериала в 2015 году побила рекорды просмотров у себя на родине и уже завоевала несколько значимых наград германского кинематографа.
Ссылка на предыдущие и альтернативные раздачи:
Качество: HDTVRip
Формат: AVI
Видео: 720x400 (16:9), 25.000 fps, XviD build 50 ~1 623 kbps avg, 0.225 bit/pixel
Аудио: 48 kHz, MPEG Layer 3, 2 ch, ~192.00 kbps avg
Субтитры: отсутствуют

Внимание! Раздача ведётся путём добавления новых серий

Внимание! Раздача ведётся путём добавления новых серий; при каждом добавлении создаётся новый торрент. Чтобы начать докачку новой серии, пользователям необходимо сделать следующее:
(1) остановить скачивание,
(2) удалить старый торрент у себя из клиента (старые серии удалять не надо),
(3) скачать новый торрент и запустить его у себя в клиенте вместо старого, при этом указать клиенту путь в старую папку куда и должно происходить скачивание новых серий.
Ваш клиент при этом должен произвести хеширование (проверку) старой папки (если не производит сам - помогите ему сделать это), и будет докачивать только те серии которых у вас ещё нет. Старые серии при этом не удаляются, а продолжают раздаваться!
Eсли вы уже удалили старые серии, то предотвратить повторную закачку старых серий можно, отжав галочку в соответствующих местах при запуске нового торрента. По возможности, желательно не удалять старые серии как можно дольше чтобы релизёр не столько продолжал раздавать старые серии, а смог сконцентрироваться на новых.

MediaInfo

E:\РЕЛИЗЫ\Club der roten Bander (S01) ViruseProject\Club.der.roten.Bander.S01E01.ViruseProject.avi
General
Complete name : E:\РЕЛИЗЫ\Club der roten Bander (S01) ViruseProject\Club.der.roten.Bander.S01E01.ViruseProject.avi
Format : AVI
Format/Info : Audio Video Interleave
File size : 606 MiB
Duration : 46mn 27s
Overall bit rate : 1 825 Kbps
Writing application : VirtualDubMod 1.5.10.2 (build 2540/release)
Writing library : VirtualDubMod build 2540/release
Video #0
ID : 0
Format : MPEG-4 Visual
Format profile : Advanced Simple@L5
Format settings, BVOP : Yes
Format settings, QPel : No
Format settings, GMC : No warppoints
Format settings, Matrix : Default (MPEG)
Codec ID : XVID
Codec ID/Hint : XviD
Duration : 46mn 27s
Bit rate : 1 623 Kbps
Width : 720 pixels
Height : 400 pixels
Display aspect ratio : 16:9
Frame rate : 25.000 fps
Color space : YUV
Chroma subsampling : 4:2:0
Bit depth : 8 bits
Scan type : Progressive
Compression mode : Lossy
Bits/(Pixel*Frame) : 0.225
Stream size : 539 MiB (89%)
Writing library : XviD 1.2.1 (UTC 2008-12-04)
Audio #1
ID : 1
Format : MPEG Audio
Format version : Version 1
Format profile : Layer 3
Mode : Joint stereo
Mode extension : MS Stereo
Codec ID : 55
Codec ID/Hint : MP3
Duration : 46mn 27s
Bit rate mode : Constant
Bit rate : 192 Kbps
Channel(s) : 2 channels
Sampling rate : 48.0 KHz
Compression mode : Lossy
Stream size : 63.8 MiB (11%)
Alignment : Aligned on interleaves
Interleave, duration : 40 ms (1.00 video frame)
Interleave, preload duration : 504 ms

Скриншоты

Вне форума [Профиль] [ЛС]
Похожие темы
Форум Тема Автор Торрент Отв. Посл. сообщение
./templates/default/images/folder_dl.gif Новинки (HD|DVD|BD|WEB|TV|SAT|PDTV|-Rip) Красный воробей / Red Sparrow (Френсис Лоуренс) [2018 г., триллер, детектив, WEBRip] MVO [КОЛОБОК] Theseus
1 | 0

0 | 609

21

2018-04-19 23:34
Theseus Последнее
Показать сообщения:    
Ответить на тему

Текущее время: Сегодня 17:43

Часовой пояс: GMT + 3



Вы не можете начинать темы
Вы не можете отвечать на сообщения
Вы не можете редактировать свои сообщения
Вы не можете удалять свои сообщения
Вы не можете голосовать в опросах
Вы не можете прикреплять файлы к сообщениям
Вы не можете скачивать файлы