Сегодня идет свободное скачивание без начисления Download

Друзья / Friends / Сезон: 1 / Серия: 7 / Сезон: 2 / Серия: 14 / Сезон: 5 / Серия: 11 (Гари Хэлворсон, Кевин Брайт, Майкл Лембек) [1994-1999, мелодрама, комедия, BDRip 720p] MVO, VO, DVO + Eng

Ответить на тему
 
Автор
Сообщение

Omen ®

Стаж: 5 лет 6 месяцев

Сообщений: 186946

Торрент-статистика

Пост 02-Апр-2016 18:00

[Цитировать]

Друзья / Friends
Год выпуска: 1994-1999
Страна: США
Жанр: мелодрама, комедия
Продолжительность: ~22 мин.
Перевод s01e07 : Профессиональный (многоголосый закадровый) /Звёзды/
Перевод s02e14 : Авторский (одноголосый закадровый) /Андрей Дольский/
Перевод s05e11 : Профессиональный (двухголосый закадровый) /студия "День сурка"/
Запись: #Antisnl#
Сведение: Beer kolesik Drinkers
Режиссёр: Гари Хэлворсон, Кевин Брайт, Майкл Лембек
В ролях: Дженнифер Энистон, Кортни Кокс, Лиза Кудроу, Мэтт ЛеБлан, Мэттью Перри, Дэвид Швиммер
Описание: Главные герои - шестеро друзей - Рейчел, Моника, Фиби, Джоуи, Чендлер и Росс. Три девушки и три парня, которые дружат, живут по соседству, вместе убивают время и противостоят жестокой реальности, делятся своими секретами и иногда очень сильно влюбляются.
Доп. информация: Первого апреля, Paramount Comedy показал марафон специальных серий сериала «Друзья», озвученных российскими звездами. В специальной «звездной» версии главные герои заговорили голосами руководителя телеканала MTV Россия Яны Чуриковой, певицы Анастасии Задорожной, художницы Саши Фроловой, актера и телеведущего Антона Лаврентьева, фотографа Дмитрия Исхакова и автора шоу «+100500» Максима Голополосова. Кроме этого были показаны еще три серии: в авторской озвучке по версии «Кураж-Бамбей», версия от голосов сериала «Южный Парк» Евгения Рыбова и Марии Трындяйкиной , а также эпизод, озвученный Андреем Дольским, чьим голосом говорили многие герои голливудских фильмов 90-х годов.
Серия в озвучке Кураж-Бамбей - [url=viewtopic.php?t=4937050]http:///*spam*//forum/viewtopic.php?t=4937050[/url]
Сэмпл: http://sendfile.su/1220910
Качество: BDRip 720p
Контейнер: MKV
Видео: x264, 1280x720 (16:9), 23.976 fps, 11.2 Mbps, 0.508 bit/pixel
Аудио Rus: AC3, 48 kHz, 2 ch, 192 Kbps
Аудио Eng: AC3, 48 kHz, 6 ch, 640 Kbps
Субтитры: отсутствуют

Список серий

s01e07 - The One With the Blackout
s02e14 - The One With the Prom Video
s05e11 - The One With All the Resolutions

MediaInfo

General
Unique ID : 247032366859217885131473635609488388020 (0xB9D8B408A1981A80B6FDEC7088D3EFB4)
Complete name : D:\Раздачи\Friends.VS.Paramount.comedy.BDRip.720p-BkD\Friends.vs.Stars.S01E07.720p.BDRip.Rus.Eng-BkD.mkv
Format : Matroska
Format version : Version 4 / Version 2
File size : 1.94 GiB
Duration : 22mn 35s
Overall bit rate : 12.3 Mbps
Encoded date : UTC 2016-04-02 12:53:54
Writing application : mkvmerge v8.2.0 ('World of Adventure') 32bit
Writing library : libebml v1.3.1 + libmatroska v1.4.2
DURATION : 00:22:35.392000000
NUMBER_OF_FRAMES : 42356
NUMBER_OF_BYTES : 32529408
_STATISTICS_WRITING_APP : mkvmerge v8.2.0 ('World of Adventure') 32bit
_STATISTICS_WRITING_DATE_UT : 2016-04-02 12:53:54
_STATISTICS_TAGS : BPS DURATION NUMBER_OF_FRAMES NUMBER_OF_BYTES
Video
ID : 1
Format : AVC
Format/Info : Advanced Video Codec
Format profile : High@L4.1
Format settings, CABAC : Yes
Format settings, ReFrames : 8 frames
Codec ID : V_MPEG4/ISO/AVC
Duration : 22mn 35s
Bit rate : 11.2 Mbps
Width : 1 280 pixels
Height : 720 pixels
Display aspect ratio : 16:9
Frame rate mode : Constant
Frame rate : 23.976 fps
Color space : YUV
Chroma subsampling : 4:2:0
Bit depth : 8 bits
Scan type : Progressive
Bits/(Pixel*Frame) : 0.508
Stream size : 1.77 GiB (91%)
Writing library : x264 core 128 r2216 198a7ea
Encoding settings : cabac=1 / ref=8 / deblock=1:-2:-2 / analyse=0x3:0x133 / me=esa / subme=10 / psy=1 / psy_rd=1.10:0.20 / mixed_ref=1 / me_range=32 / chroma_me=1 / trellis=2 / 8x8dct=1 / cqm=0 / deadzone=21,11 / fast_pskip=0 / chroma_qp_offset=-3 / threads=36 / lookahead_threads=6 / sliced_threads=0 / nr=0 / decimate=1 / interlaced=0 / bluray_compat=0 / constrained_intra=0 / bframes=6 / b_pyramid=2 / b_adapt=2 / b_bias=0 / direct=3 / weightb=1 / open_gop=0 / weightp=2 / keyint=250 / keyint_min=23 / scenecut=40 / intra_refresh=0 / rc_lookahead=60 / rc=crf / mbtree=1 / crf=18.0 / qcomp=0.60 / qpmin=0 / qpmax=69 / qpstep=4 / ip_ratio=1.30 / aq=1:0.50
Language : English
Default : Yes
Forced : No
DURATION : 00:22:34.437000000
NUMBER_OF_FRAMES : 32474
NUMBER_OF_BYTES : 1941682895
_STATISTICS_WRITING_APP : mkvmerge v8.2.0 ('World of Adventure') 32bit
_STATISTICS_WRITING_DATE_UT : 2016-04-02 12:53:54
_STATISTICS_TAGS : BPS DURATION NUMBER_OF_FRAMES NUMBER_OF_BYTES
Audio #1
ID : 2
Format : AC-3
Format/Info : Audio Coding 3
Mode extension : CM (complete main)
Format settings, Endianness : Big
Codec ID : A_AC3
Duration : 22mn 35s
Bit rate mode : Constant
Bit rate : 192 Kbps
Channel(s) : 2 channels
Channel positions : Front: L R
Sampling rate : 48.0 KHz
Compression mode : Lossy
Stream size : 31.0 MiB (2%)
Language : Russian
Default : Yes
Forced : No
Audio #2
ID : 3
Format : AC-3
Format/Info : Audio Coding 3
Mode extension : CM (complete main)
Format settings, Endianness : Big
Codec ID : A_AC3
Duration : 22mn 35s
Bit rate mode : Constant
Bit rate : 640 Kbps
Channel(s) : 6 channels
Channel positions : Front: L C R, Side: L R, LFE
Sampling rate : 48.0 KHz
Compression mode : Lossy
Stream size : 103 MiB (5%)
Language : English
Default : No
Forced : No

Скриншоты

Вне форума [Профиль] [ЛС]
Похожие темы
Форум Тема Автор Торрент Отв. Посл. сообщение
./templates/default/images/folder_dl.gif Зарубежные сериалы Друзья - Дополнительные материалы / Friends Bonus (Gag Reels, Bloopers, etc.) [1994 - 2004 г., DVDRip, Rus + Eng sub] Omen
1 | 0

0 | 971

2

2012-12-28 13:12
Omen Последнее
Показать сообщения:    
Ответить на тему

Текущее время: Сегодня 06:21

Часовой пояс: GMT + 3



Вы не можете начинать темы
Вы не можете отвечать на сообщения
Вы не можете редактировать свои сообщения
Вы не можете удалять свои сообщения
Вы не можете голосовать в опросах
Вы не можете прикреплять файлы к сообщениям
Вы не можете скачивать файлы