Сегодня идет свободное скачивание без начисления Download

Джек Айриш/ Jack Irish / Сезон: 3 / Серии: 1-3 (6) (Киран Дарси-Смит) [2016, драма, криминал, детектив, WEB-DL 1080p] MVO (FocusStudio)

Ответить на тему
 
Автор
Сообщение

Omen ®

Стаж: 5 лет 7 месяцев

Сообщений: 185427

Торрент-статистика

Пост 02-Апр-2016 09:00

[Цитировать]

-Джек Айриш/ Jack Irish
3 сезон, 1-3 серии
- Год выпуска: 2016
Страна: Австралия
Жанр: драма, криминал, детектив
Продолжительность: 3 x ~54-59 мин
Перевод: профессиональный многоголосый закадровый (FocusStudio)-Режиссёры: Киран Дарси-Смит, Дэниэл Неттхейм, Марк Джофф-В ролях: Гай Пирс, Марта Дюссельдорп, Аарон Педерсен, Рой Биллинг, Шэйн Джейкобсон, Дэмиен Ричардсон, Вадим Гловна, Колин Фрилз, Эмма Бут, Стив Бисли, Маршалл Напье, Риз Малдун, Тотти Голдсмит, Колин Хэй, Николас Белл, Дон Хани, Диана Гленн, Мартин Сакс, Бэрри Хамфриз...-Описание: Джек Айриш (Гай Пирс) - человек, пытающийся вновь собрать свою жизнь воедино. Бывший адвокат, чей мир взорвался после того, как его жену Изабель убил клиент, Джек попытался полностью раствориться в алкоголе. Впрочем, благодаря друзьям он не слишком преуспел в этой попытке. Он бросил заниматься уголовным правом и сейчас просто живет полноценной "мужской жизнью": спорт, выпивка, искусство, ставки, драки, редкая любовь...
Он работает на Гарри Странга, выбивая долги и помогая манипулировать ставками на скачках. Еще его можно найти в мебельной мастерской Чарли Тауба, где он обучается старинным методам работы с деревом. А его вторым домом стал паб Принц Пруссии - последняя цитадель футбольного клуба Фицрой, легендой которого был его отец. Он успешно избегает своего прошлого, до тех пор, пока прошлое не находит его само...
Сериал снят по романам Питера Темпла.-Релиз: - -Качество: WEB-DL 1080p
Формат: MKV
Видео: AVC, 1920x1080 (16:9), 25 fps, ~5000 kbps
Аудио Rus: AC3, 48 kHz, 6 ch, 384 kbps, CBR
Аудио Eng: AC3, 48 kHz, 6 ch, 384 kbps, CBR
Субтитры: русские форсированные-

Скриншоты

MediaInfo

Format : Matroska
Format version : Version 4 / Version 2
File size : 2.26 GiB
Duration : 54mn 40s
Overall bit rate : 5 905 Kbps
Movie name : Jack Irish 3x1 @ FocusStudio
Encoded date : UTC 2016-04-01 18:12:39
Writing application : mkvmerge v8.5.2 ('Crosses') 64bit
Writing library : libebml v1.3.3 + libmatroska v1.4.4
Video
ID : 1
Format : AVC
Format/Info : Advanced Video Codec
Format profile : High@L4
Format settings, CABAC : Yes
Format settings, ReFrames : 4 frames
Codec ID : V_MPEG4/ISO/AVC
Duration : 54mn 40s
Bit rate : 5 020 Kbps
Width : 1 920 pixels
Height : 1 080 pixels
Display aspect ratio : 16:9
Frame rate mode : Constant
Frame rate : 25.000 fps
Color space : YUV
Chroma subsampling : 4:2:0
Bit depth : 8 bits
Scan type : Progressive
Bits/(Pixel*Frame) : 0.097
Stream size : 1.92 GiB (85%)
Language : English
Default : Yes
Forced : No
Color range : Limited
Color primaries : BT.709
Transfer characteristics : BT.709
Matrix coefficients : BT.709
Audio #1
ID : 2
Format : AC-3
Format/Info : Audio Coding 3
Mode extension : CM (complete main)
Format settings, Endianness : Big
Codec ID : A_AC3
Duration : 54mn 40s
Bit rate mode : Constant
Bit rate : 384 Kbps
Channel(s) : 6 channels
Channel positions : Front: L C R, Side: L R, LFE
Sampling rate : 48.0 KHz
Compression mode : Lossy
Stream size : 150 MiB (7%)
Title : MVO FocuStudio
Language : Russian
Default : Yes
Forced : No
Audio #2
ID : 3
Format : AC-3
Format/Info : Audio Coding 3
Mode extension : CM (complete main)
Format settings, Endianness : Big
Codec ID : A_AC3
Duration : 54mn 40s
Bit rate mode : Constant
Bit rate : 384 Kbps
Channel(s) : 6 channels
Channel positions : Front: L C R, Side: L R, LFE
Sampling rate : 48.0 KHz
Compression mode : Lossy
Stream size : 150 MiB (7%)
Language : English
Default : No
Forced : No

Раздача ведется путем добавления новых серий

Когда раздача ведётся путём добавления новых серий, при каждом добавлении создётся новый торрент. Чтобы начать докачку новой серии, пользователям необходимо сделать следующее:
(1) остановить скачивание,
(2) удалить старый торрент у себя из клиента (старые серии удалять не надо),
(3) скачать новый торрент и запустить его у себя в клиенте вместо старого, при этом указать клиенту путь в старую папку, куда и должно происходить скачивание новых серий.
Ваш клиент при этом должен произвести хеширование (проверку) старой папки (если не производит сам - помогите ему сделать это), и будет докачивать только те серии, которых у вас ещё нет. Старые серии при этом не удаляются, а продолжают раздаваться!
Eсли вы уже удалили старые серии, то предотвратить повторную закачку старых серий можно, отжав галочку в соответсвующих местах при запуске нового торрента. По возможности, желательно не удалять старые серии как можно дольше, чтобы релизёр не столько продолжал раздавать старые серии, а смог сконцентрироваться на новых.
-
Вне форума [Профиль] [ЛС]
Показать сообщения:    
Ответить на тему

Текущее время: Сегодня 22:46

Часовой пояс: GMT + 3



Вы не можете начинать темы
Вы не можете отвечать на сообщения
Вы не можете редактировать свои сообщения
Вы не можете удалять свои сообщения
Вы не можете голосовать в опросах
Вы не можете прикреплять файлы к сообщениям
Вы не можете скачивать файлы