Сегодня идет свободное скачивание без начисления Download

Смерть по объявлению / Убийству нужна реклама / Murder Must Advertise / Сезон: 4 / Серии: 1-4 из 4 (Родни Беннетт) [1973, Классический детектив, DVDRip] VO (- имитация многоголосого - constart)

Ответить на тему
 
Автор
Сообщение

Omen ®

Стаж: 5 лет 6 месяцев

Сообщений: 186946

Торрент-статистика

Пост 02-Апр-2016 03:00

[Цитировать]

Смерть по объявлению / Убийству нужна реклама / Murder Must Advertise
Год выпуска: 1973
Страна: Великобритания
Жанр: Классический детектив
Продолжительность: 4x49 мин
Перевод: Любительский (одноголосый закадровый) - имитация многоголосого - constart
Режиссёр: Родни Беннетт
В ролях: Ян Кармайкл
Марк Иден
Кристофер Тимоти
Пол Дэрроу
Ширли Кейн
Файона Уокер
Рэйчел Херберт
и другие.
Описание:Лорд Питер Уимзи принимает предложение от весьма респектабельного рекламного агентства “Пимс” расследовать тайну смерти его сотрудника Виктора Дина, неудачно упавшего с винтовой лестницы и предотвратить неприятности и слухи, вредящие репутации агентства. Дело в том, что Виктор Дин оставил после себя недописанное письмо, намекающее на скандальные вещи, происходящие внутри предприятия. Под вымышленным именем Уимзи устраивается на работу в агентство и начинает свое расследование, изучая внутреннюю кухню, и даже обнаруживает в себе талант копирайтера. Провоцируя и подначивая сотрудников, Уимзи очень скоро натыкается на те неприятности, которые привели Виктора Дина к роковому падению.
Доп. информация: Огромная благодарность за перевод Okline, marina77eliseeva!
Сэмпл: http://sendfile.su/1220631
Качество: DVDRip
Формат: AVI
Видео: XviD, 720 x 540, 4:3, 29.970 fps, 1731 Кбит/сек
Аудио: AC3, 192 Kbps, 48.0 KHz, 2 канала
Субтитры: Отсутствуют

Список серий

Мини-сериал из 4 эпизодов

MediaInfo

Формат : AVI
Формат/Информация : Audio Video Interleave
Размер файла : 685 Мбайт
Продолжительность : 49 м.
Общий поток : 1935 Кбит/сек
Видео
Идентификатор : 0
Формат : MPEG-4 Visual
Профиль формата : Advanced Simple@L5
Параметр BVOP формата : 2
Параметр QPel формата : Нет
Параметр GMC формата : Без точки перехода
Параметр матрицы формата : Default (H.263)
Режим смешивания : Сжатый битовый поток
Идентификатор кодека : XVID
Идентификатор кодека/Подсказка : XviD
Продолжительность : 49 м.
Битрейт : 1731 Кбит/сек
Ширина : 720 пикселей
Высота : 540 пикселей
Соотношение сторон : 4:3
Частота кадров : 29,970 кадров/сек
Цветовое пространство : YUV
Субдискретизация насыщенности : 4:2:0
Битовая глубина : 8 бит
Тип развёртки : Прогрессивная
Метод сжатия : С потерями
Бит/(Пиксели*Кадры) : 0.149
Размер потока : 613 Мбайт (89%)
Библиотека кодирования : XviD 64
Аудио
Идентификатор : 1
Формат : AC-3
Формат/Информация : Audio Coding 3
Расширение режима : CM (complete main)
Параметр Endianness формата : Big
Идентификатор кодека : 2000
Продолжительность : 49 м.
Вид битрейта : Постоянный
Битрейт : 192 Кбит/сек
Каналы : 2 канала
Расположение каналов : Front: L R
Частота : 48,0 КГц
Битовая глубина : 16 бит
Метод сжатия : С потерями
Размер потока : 68,0 Мбайт (10%)
Выравнивание : Разделение по промежуткам
Продолжительность промежутка : 33 мс. (1,00 видеокадр)
Время предзагрузки промежутка : 500 мс.

Скриншоты












Вне форума [Профиль] [ЛС]
Похожие темы
Форум Тема Автор Торрент Отв. Посл. сообщение
./templates/default/images/folder_dl.gif Приключения, детектив, боевик, триллер Борис Акунин | Смерть на брудершафт (Фильма 1-10) [2010-2012] [MP3] Omen
1 | 0

0 | 2298

39

2013-01-14 20:57
Omen Последнее
./templates/default/images/folder_dl.gif Зарубежное кино Шоссе смерти / Highwaymen (Роберт Хармон / Robert Harmon) [2004, США, Канада, боевик, триллер, криминал, WEB-DL 720p] 3x DVO + Sub Rus, Eng + Original Eng Omen
1 | 0

1 | 927

9

2015-06-06 08:17
Dracula Последнее
./templates/default/images/folder_dl.gif Новинки (CamRip|TS) Бегущий в лабиринте: Лекарство от смерти / Maze Runner: The Death Cure (Уэс Болл) [2018 г., фантастика, боевик, триллер, TS 720p] DUB Theseus
1 | 0

0 | 1414

8

2018-02-08 18:04
Theseus Последнее
./templates/default/images/folder_dl.gif Новинки (BD|HDTV|DVD) Бегущий в лабиринте: Лекарство от смерти / Maze Runner: The Death Cure (Уэс Болл) [2018 г., фантастика, боевик, триллер, WEBRip 1080p] [MUZOBOZ] Theseus
1 | 0

0 | 331

8

2018-04-06 15:22
Theseus Последнее
./templates/default/images/folder_dl.gif Новинки (HD|DVD|BD|WEB|TV|SAT|PDTV|-Rip) Бегущий в лабиринте: Лекарство от смерти / Maze Runner: The Death Cure (Уэс Болл) [2018 г., фантастика, боевик, триллер, HDRip] | HDRezka Studio Theseus
1 | 0

0 | 220

4

2018-04-14 22:20
Theseus Последнее
./templates/default/images/folder_dl.gif Новинки (HD|DVD|BD|WEB|TV|SAT|PDTV|-Rip) Бегущий в лабиринте: Лекарство от смерти / Maze Runner: The Death Cure (Уэс Болл) [2018 г., фантастика, боевик, триллер, BDRip-AVC] DUB [Чистый звук] | MVO [HDRezka Studio] Theseus
1 | 0

0 | 212

5

2018-04-17 13:32
Theseus Последнее
Показать сообщения:    
Ответить на тему

Текущее время: Сегодня 14:37

Часовой пояс: GMT + 3



Вы не можете начинать темы
Вы не можете отвечать на сообщения
Вы не можете редактировать свои сообщения
Вы не можете удалять свои сообщения
Вы не можете голосовать в опросах
Вы не можете прикреплять файлы к сообщениям
Вы не можете скачивать файлы