Сегодня идет свободное скачивание без начисления Download

Черный список / The Blacklist / Сезон: 3 / Серии: 1 из 22 (Майкл В. Уоткинс, Винс Мисиано, Джо Карнахан) [2015, триллер, драма, криминал, WEB-DL 720] MVO (Кириллица) + Original + Subs (Rus, Eng)

Ответить на тему
 
Автор
Сообщение

Omen ®

Стаж: 5 лет 9 месяцев

Сообщений: 184393

Торрент-статистика

Пост 01-Апр-2016 03:33

[Цитировать]

Чёрный список / The Blacklist-Год выхода: 2015
Выпущено: США
Жанр: триллер, драма, мелодрама, криминал, детектив
Продолжительность серии: ~00:43:05
Перевод: Профессиональный (многоголосый закадровый) Кириллица
Создатель: Джон Бокенкамп, Брэндон Маргулис, Брэндон Зонньер
Режиссёр: Майкл В. Уоткинс, Стивен А. Эделсон, Карен Гавиола
В ролях: Джеймс Спэйдер, Меган Бун, Диего Клаттенхофф, Гарри Дж. Ленникс, Райан Игголд, Амир Арисон, Парминдер К. Награ, Хишам Тафик, Алан Алда, Сьюзан Бломмарт
Описание: На протяжении десятилетий бывший правительственный агент Рэймонд Реддингтон был одним из самых разыскиваемых беглецов ФБР. Неожиданно он решает сдаться
Релиз: CasStudio
Качество: WEB-DL 720p | Семпл
Формат: MKV
Видео: AVC (H.264) | 1280x718p | 23.976 fps | ~4100 Kbps
Аудио #1: AC3 | 48 KHz | 5.1 (Front: L C R Side: L R) + LFE | ~384 Kbps [RUS]
Аудио #2: AC3 | 48 KHz | 5.1 (Front: L C R Side: L R) + LFE | ~384 Kbps [ENG]
Субтитры: Русские (Forced), Русские, Английские (СС)

Media Info

Код:
General
Unique ID                                : 253120346138568308036312344970496722163 (0xBE6D349627D7538A8E38AD98B06644F3)
Complete name                            : \Blacklist.S03.720p.WEB-DL.DD5.1.H.264-CasStudio\The.Blacklist.S03E01.720p.WEB-DL.DD5.1.H.264-CasStudio.mkv
Format                                   : Matroska
Format version                           : Version 4 / Version 2
File size                                : 1.45 GiB
Duration                                 : 43mn 5s
Overall bit rate                         : 4 803 Kbps
Movie name                               : The.Blacklist.S03E01.The.Troll.Farmer.720p.WEB-DL.DD5.1.H.264-CasStudio
Encoded date                             : UTC 2016-03-31 23:59:46
Writing application                      : mkvmerge v9.0.1 ('Obstacles') 64bit
Writing library                          : libebml v1.3.3 + libmatroska v1.4.4
Cover                                    : Yes
Attachments                              : Cover
Video
ID                                       : 1
Format                                   : AVC
Format/Info                              : Advanced Video Codec
Format profile                           : High@L3.1
Format settings, CABAC                   : No
Format settings, ReFrames                : 2 frames
Codec ID                                 : V_MPEG4/ISO/AVC
Duration                                 : 43mn 5s
Bit rate                                 : 4 032 Kbps
Width                                    : 1 280 pixels
Height                                   : 718 pixels
Display aspect ratio                     : 16:9
Frame rate mode                          : Constant
Frame rate                               : 23.976 (23976/1000) fps
Color space                              : YUV
Chroma subsampling                       : 4:2:0
Bit depth                                : 8 bits
Scan type                                : Progressive
Bits/(Pixel*Frame)                       : 0.183
Stream size                              : 1.21 GiB (84%)
Language                                 : English
Default                                  : Yes
Forced                                   : No
Color range                              : Limited
Color primaries                          : BT.709
Transfer characteristics                 : BT.709
Matrix coefficients                      : BT.709
Audio #1
ID                                       : 2
Format                                   : AC-3
Format/Info                              : Audio Coding 3
Mode extension                           : CM (complete main)
Format settings, Endianness              : Big
Codec ID                                 : A_AC3
Duration                                 : 43mn 5s
Bit rate mode                            : Constant
Bit rate                                 : 384 Kbps
Channel(s)                               : 6 channels
Channel positions                        : Front: L C R, Side: L R, LFE
Sampling rate                            : 48.0 KHz
Frame rate                               : 31.250 fps (1536 spf)
Compression mode                         : Lossy
Stream size                              : 118 MiB (8%)
Language                                 : Russian
Default                                  : Yes
Forced                                   : No
Audio #2
ID                                       : 3
Format                                   : AC-3
Format/Info                              : Audio Coding 3
Mode extension                           : CM (complete main)
Format settings, Endianness              : Big
Codec ID                                 : A_AC3
Duration                                 : 43mn 5s
Bit rate mode                            : Constant
Bit rate                                 : 384 Kbps
Channel(s)                               : 6 channels
Channel positions                        : Front: L C R, Side: L R, LFE
Sampling rate                            : 48.0 KHz
Frame rate                               : 31.250 fps (1536 spf)
Compression mode                         : Lossy
Stream size                              : 118 MiB (8%)
Language                                 : English
Default                                  : No
Forced                                   : No
Text #1
ID                                       : 4
Format                                   : UTF-8
Codec ID                                 : S_TEXT/UTF8
Codec ID/Info                            : UTF-8 Plain Text
Duration                                 : 32mn 3s
Bit rate                                 : 1 bps
Count of elements                        : 9
Stream size                              : 275 Bytes (0%)
Title                                    : Forced
Language                                 : Russian
Default                                  : Yes
Forced                                   : No
Text #2
ID                                       : 5
Format                                   : UTF-8
Codec ID                                 : S_TEXT/UTF8
Codec ID/Info                            : UTF-8 Plain Text
Duration                                 : 42mn 18s
Bit rate                                 : 124 bps
Count of elements                        : 614
Stream size                              : 38.5 KiB (0%)
Title                                    : Full
Language                                 : Russian
Default                                  : No
Forced                                   : No
Text #3
ID                                       : 6
Format                                   : UTF-8
Codec ID                                 : S_TEXT/UTF8
Codec ID/Info                            : UTF-8 Plain Text
Duration                                 : 42mn 20s
Bit rate                                 : 106 bps
Count of elements                        : 728
Stream size                              : 33.0 KiB (0%)
Title                                    : CC
Language                                 : English
Default                                  : No
Forced                                   : No

Скриншоты

Внимание! Раздача ведётся путём добавления новых серий!

Внимание! Раздача ведётся путём добавления новых серий; при каждом добавлении создаётся новый торрент.
Чтобы начать докачку новой серии, пользователям необходимо сделать следующее:
1. Остановить скачивание.
2. Удалить старый торрент у себя из клиента (старые серии удалять не надо).
3. Скачать новый торрент и запустить его у себя в клиенте вместо старого, при этом указать клиенту путь в старую папку куда и должно происходить скачивание новых серий.
Ваш клиент при этом должен произвести хеширование (проверку) старой папки (если не производит сам - помогите ему сделать это), и будет докачивать только те серии которых у вас ещё нет. Старые серии при этом не удаляются, а продолжают раздаваться!
Eсли вы уже удалили старые серии, то предотвратить повторную закачку старых серий можно, отжав галочку в соответсвующих местах при запуске нового торрента.
Вне форума [Профиль] [ЛС]
Похожие темы
Форум Тема Автор Торрент Отв. Посл. сообщение
./templates/default/images/folder_dl.gif Отечественные cериалы Черные волки / Серии: 8 из 8 (Дмитрий Константинов) [2011, Россия, драма, криминал, DVD9] R5 «Парадиз Видео» voovaz
1 | 0

0 | 816

8

2011-11-09 14:07
voovaz Последнее
./templates/default/images/folder_dl.gif Фантастика, фэнтези, ужасы, мистика Василий Головачев | Черный человек (2018) [MP3] }{@R0N
1 | 0

0 | 354

7

2018-04-02 13:30
}{@R0N Последнее
Показать сообщения:    
Ответить на тему

Текущее время: Сегодня 19:04

Часовой пояс: GMT + 3



Вы не можете начинать темы
Вы не можете отвечать на сообщения
Вы не можете редактировать свои сообщения
Вы не можете удалять свои сообщения
Вы не можете голосовать в опросах
Вы не можете прикреплять файлы к сообщениям
Вы не можете скачивать файлы