Сегодня идет свободное скачивание без начисления Download

Во все тяжкие / Breaking Bad / Сезон: 3 / Серии: 1-13 (13) (Винс Гиллиган, Адам Бернстайн) [2010, США, драма, криминал, BDRip 720p] MVO (LostFilm) + DVO (Кубик в Кубе) + Original + Subs (Rus, Eng)

Ответить на тему
 
Автор
Сообщение

Omen ®

Стаж: 5 лет 10 месяцев

Сообщений: 184329

Торрент-статистика

Пост 01-Апр-2016 00:00

[Цитировать]

Во все тяжкие / Breaking Bad
Год выпуска: 2010
Страна: США
Жанр: драма, криминал
Продолжительность: 13 х ~48 мин
Перевод 1: Профессиональный (многоголосый закадровый) LostFilm
Перевод 2: Профессиональный (двухголосый закадровый) Кубик в Кубе
Субтитры: Russian, English
Режиссеры: Винс Гиллиган, Адам Бернстайн, Джим МакКэй, Тришиа Брок, Бронуэн Хьюз, Тим Хантер, Брайан Кренстон, Чарльз Хейд, Терри МакДонаф, Джон Дал, Йохан Ренк, Питер Медак, Феликс Энрикез Алькала, Мишель Макларен, Фил Абрахам, Колин Бакси, Скотт Винант, Джон Шибан, Майкл Слоуйс, Райан Джонсон, Дэвид Слэйд, Питер Гулд, Джордж Мастрас, Томас Шнауз
Актеры: Брайан Крэнстон, Анна Ганн, Аарон Пол, Дин Норрис, Бетси Брандт, АрДжей Митти, Боб Оденкёрк, Джанкарло Эспозито, Джонатан Бэнкс, Стивен Майкл Квеза и др.
Описание: Знакомьтесь, Уолтер Уайт, преподаватель химии в университе. У него есть жена и сын-инвалид, жена ждет ещё одного ребенка. Уолт уже не молод и в этом возрасте часто бывают кризисы, тем более нужно кормить семью, а на зарплату преподавателя не разгуляешься, поэтому он вынужден подрабатывать на автомойке, где его же студенты над ним насмехаются. После того, как Уолту ставят диагноз - неоперабельный рак лёгких, вместе со своим бывшим учеником он решает открыть подпольную лабораторию по приготовлению наркотиков. Ему больше нечего терять, да и свояк постоянно говорит, что метамфетамин приносит огромные деньги. Кто ещё может приготовить чистейший метамфетамин, как не учитель химии?
Качество: BDRip 720p
Формат: MKV
Видео: 1280x720 23.976 fps MPEG-4 AVC ~7000 kbps
Аудио 1: Russian: 48 kHz, AC3 Dolby Digital, 5.1, 448 kbps (LostFilm)
Аудио 2: Russian: 48 kHz, AC3 Dolby Digital, 5.1, 448 kbps (Кубик в Кубе)
Аудио 3: English: 48 kHz, AC3 Dolby Digital, 5.1, 448 kbps
Субтитры: Russian (Forced), Russian, English
Рип – CtrlHD
Русские дорожки и субтитры - lostrator

Список эпизодов

  • Баста (No Mas)
  • Конь без клички (Caballo sin nombre)
  • Я.Т.Т. (I.F.T.)
  • Зеленый свет (Green Light)
  • По новой (Mas)
  • На закате (Sunset)
  • Одна минута (One Minute)
  • Я тебя вижу (I See You)
  • По-кафкиански (Kafkaesque)
  • Муха (Fly)
  • Абикиу (Abiquiu)
  • Полумеры (Half Measures)
  • Полная мера (Full Measure)

Скриншоты

MediaInfo

General
Unique ID : 246606509379037480913460862108848053637 (0xB986AFA38DE4301BB86597AFD4F75D85)
Complete name : Breaking.Bad.s03e02.Caballo.sin.nombre.mkv
Format : Matroska
Format version : Version 2
File size : 2.75 GiB
Duration : 47mn 12s
Overall bit rate : 8 346 Kbps
Encoded date : UTC 2016-03-30 00:25:59
Writing application : mkvmerge v9.0.1 ('Obstacles') 64bit
Writing library : libebml v1.3.3 + libmatroska v1.4.4
Video
ID : 1
Format : AVC
Format/Info : Advanced Video Codec
Format profile : High@L4.1
Format settings, CABAC : Yes
Format settings, ReFrames : 9 frames
Codec ID : V_MPEG4/ISO/AVC
Duration : 47mn 12s
Bit rate : 7 000 Kbps
Width : 1 280 pixels
Height : 720 pixels
Display aspect ratio : 16:9
Frame rate mode : Constant
Frame rate : 23.976 (24000/1001) fps
Color space : YUV
Chroma subsampling : 4:2:0
Bit depth : 8 bits
Scan type : Progressive
Bits/(Pixel*Frame) : 0.317
Stream size : 2.31 GiB (84%)
Writing library : x264 core 114 r1900 60ef1f8
Encoding settings : cabac=1 / ref=9 / deblock=1:-3:-3 / analyse=0x3:0x113 / me=umh / subme=9 / psy=1 / psy_rd=1.00:0.00 / mixed_ref=1 / me_range=32 / chroma_me=1 / trellis=1 / 8x8dct=1 / cqm=0 / deadzone=21,11 / fast_pskip=0 / chroma_qp_offset=-2 / threads=18 / sliced_threads=0 / nr=0 / decimate=0 / interlaced=0 / constrained_intra=0 / bframes=6 / b_pyramid=2 / b_adapt=1 / b_bias=0 / direct=1 / weightb=1 / open_gop=0 / weightp=2 / keyint=250 / keyint_min=23 / scenecut=40 / intra_refresh=0 / rc_lookahead=40 / rc=2pass / mbtree=1 / bitrate=7000 / ratetol=1.0 / qcomp=0.60 / qpmin=0 / qpmax=69 / qpstep=4 / cplxblur=20.0 / qblur=0.5 / ip_ratio=1.40 / aq=1:0.80
Language : English
Default : Yes
Forced : No
Audio #1
ID : 2
Format : AC-3
Format/Info : Audio Coding 3
Mode extension : CM (complete main)
Format settings, Endianness : Big
Codec ID : A_AC3
Duration : 47mn 12s
Bit rate mode : Constant
Bit rate : 448 Kbps
Channel(s) : 6 channels
Channel positions : Front: L C R, Side: L R, LFE
Sampling rate : 48.0 KHz
Frame rate : 31.250 fps (1536 spf)
Compression mode : Lossy
Stream size : 151 MiB (5%)
Title : MVO [LostFilm]
Language : Russian
Default : Yes
Forced : No
Audio #2
ID : 3
Format : AC-3
Format/Info : Audio Coding 3
Mode extension : CM (complete main)
Format settings, Endianness : Big
Codec ID : A_AC3
Duration : 47mn 12s
Bit rate mode : Constant
Bit rate : 448 Kbps
Channel(s) : 6 channels
Channel positions : Front: L C R, Side: L R, LFE
Sampling rate : 48.0 KHz
Frame rate : 31.250 fps (1536 spf)
Compression mode : Lossy
Stream size : 151 MiB (5%)
Title : DVO [Кубик в Кубе]
Language : Russian
Default : No
Forced : No
Audio #3
ID : 4
Format : AC-3
Format/Info : Audio Coding 3
Mode extension : CM (complete main)
Format settings, Endianness : Big
Codec ID : A_AC3
Duration : 47mn 12s
Bit rate mode : Constant
Bit rate : 448 Kbps
Channel(s) : 6 channels
Channel positions : Front: L C R, Side: L R, LFE
Sampling rate : 48.0 KHz
Frame rate : 31.250 fps (1536 spf)
Compression mode : Lossy
Stream size : 151 MiB (5%)
Title : Original
Language : English
Default : No
Forced : No
Text #1
ID : 5
Format : UTF-8
Codec ID : S_TEXT/UTF8
Codec ID/Info : UTF-8 Plain Text
Duration : 30mn 18s
Bit rate : 0 bps
Count of elements : 5
Stream size : 179 Bytes (0%)
Title : forced
Language : Russian
Default : Yes
Forced : No
Text #2
ID : 6
Format : UTF-8
Codec ID : S_TEXT/UTF8
Codec ID/Info : UTF-8 Plain Text
Duration : 43mn 32s
Bit rate : 91 bps
Count of elements : 442
Stream size : 29.0 KiB (0%)
Title : full
Language : Russian
Default : No
Forced : No
Text #3
ID : 7
Format : UTF-8
Codec ID : S_TEXT/UTF8
Codec ID/Info : UTF-8 Plain Text
Duration : 41mn 59s
Bit rate : 51 bps
Count of elements : 414
Stream size : 15.8 KiB (0%)
Title : full
Language : English
Default : No
Forced : No
Menu
00:00:00.000 : :Chapter 01
00:04:32.145 : :Chapter 02
00:15:12.703 : :Chapter 03
00:24:16.871 : :Chapter 04
00:35:54.944 : :Chapter 05
00:46:28.577 : :Chapter 06
00:47:10.577 : :Chapter 07
Скачать сэмпл
Вне форума [Профиль] [ЛС]
Показать сообщения:    
Ответить на тему

Текущее время: Сегодня 22:25

Часовой пояс: GMT + 3



Вы не можете начинать темы
Вы не можете отвечать на сообщения
Вы не можете редактировать свои сообщения
Вы не можете удалять свои сообщения
Вы не можете голосовать в опросах
Вы не можете прикреплять файлы к сообщениям
Вы не можете скачивать файлы