Сегодня идет свободное скачивание без начисления Download

Гримм / Grimm / Сезон: 05 / Серии: 01-14 из 22 (Норберто Барба, Терренс О’Хара, Эрик Ланёвилль) [2015 г., ужасы, фэнтези, драма, WEB-DLRip 400p] MVO LostFilm + Original

Ответить на тему
 
Автор
Сообщение

Omen ®

Стаж: 5 лет 9 месяцев

Сообщений: 184433

Торрент-статистика

Пост 30-Мар-2016 12:00

[Цитировать]

-Гримм / Grimm
«Not your usual suspects»
5 сезон / Серии: 01-14 из 22
- Год выпуска: 2015 || Страна: США
Жанр: ужасы, фэнтези, драма
Продолжительность: 22 серии по 45 мин.-Перевод: Профессиональный (многоголосый закадровый), LostFilm-Субтитры: Нет-Режиссёр: Норберто Барба, Терренс О’Хара, Эрик Ланёвилль
Сценарий: Стивен Карпентер, Дэвид Гринуолт, Джим Кауф
Композитор: Ричард Марвин
В ролях: Дэвид Гвинтоли, Битси Таллоч, Сайлас Уэйр Митчелл, Расселл Хорнсби, Саша Ройз, Регги Ли, Клер Коффи, Бри Тёрнер, Джошуа Ли Фрэзиер, Шарон Сакс и др.- -Описание:-Действие происходит в современном Портленде, где детектив из отдела убийств узнаёт, что он является потомком группы охотников, известных как «Гриммы», которые сражаются, чтобы сохранить человечество в безопасности от сверхъестественных существ. Узнав о своей судьбе, и том, что он является последним из своего рода, он должен защитить каждую живую душу от зловещих персонажей сборника сказок, которые проникли в реальный мир.-Sample || [url=tracker.php?f=189&nm=Grimm]Все раздачи сериала[/url]- -

Техданные

Над релизом работали:
Релиз: CasStudio || Перевод и озвучивание: LostFilm || Работа со звуком: k-marat-s || Рип: ЛП || Автор постера: GRinGrey
Качество: WEB-DLRip
Формат: AVI
Видео: 720x400 (1.80:1), 23.976 fps, XviD MPEG-4 ~1995 kbps avg, 0.29 bit/pixel
Аудио#1: Russian: 48 kHz, AC3 Dolby Digital, 3/2 (L,C,R,l,r) + LFE ch, ~384 kbps
Аудио#2: English: 48 kHz, AC3 Dolby Digital, 3/2 (L,C,R,l,r) + LFE ch, ~384 kbps

Список серий

01. Идентификация Гримма / The Grimm Identity
02. Прямая и существенная угроза / Clear and Wesen Danger
03. Пропавшие детки / Lost Boys
04. Дева в награду / Maiden Quest
05. Крысиный король / The Rat King
06. Ночь существ / Wesen Nacht
07. Ева-разрушительница / Eve of Destruction
08. Рептильная дисфункция / A Reptile Dysfunction
09. Несчастливые звезды / Star-Crossed
10. Карта семи рыцарей / Map of the Seven Knights
11. Ключевой ход / Key Move
12. В Шварцвальде / Into the Schwarzwald
13. Молчание масок / Silence of the Slams
14. Ликантропия / Lycanthropia

MediaInfo

General
Complete name : D:\Сериалы\[Grimm]\Grimm Season 5 CasStudio.TV\Grimm.s05e14.rus.eng.CasStudio.TV.avi
Format : AVI
Format/Info : Audio Video Interleave
File size : 853 MiB
Duration : 42mn 53s
Overall bit rate : 2 782 Kbps
Writing application : VirtualDubMod 1.5.10.2 (build 2540/release)
Writing library : VirtualDubMod build 2540/release
Video
ID : 0
Format : MPEG-4 Visual
Format profile : Advanced Simple@L5
Format settings, BVOP : 1
Format settings, QPel : No
Format settings, GMC : No warppoints
Format settings, Matrix : Default (MPEG)
Codec ID : XVID
Codec ID/Hint : XviD
Duration : 42mn 53s
Bit rate : 2 000 Kbps
Width : 720 pixels
Height : 400 pixels
Display aspect ratio : 16:9
Frame rate : 23.976 (23976/1000) fps
Color space : YUV
Chroma subsampling : 4:2:0
Bit depth : 8 bits
Scan type : Progressive
Compression mode : Lossy
Bits/(Pixel*Frame) : 0.290
Stream size : 613 MiB (72%)
Writing library : XviD 73
Audio #1
ID : 1
Format : AC-3
Format/Info : Audio Coding 3
Mode extension : CM (complete main)
Format settings, Endianness : Big
Codec ID : 2000
Duration : 42mn 53s
Bit rate mode : Constant
Bit rate : 384 Kbps
Channel(s) : 6 channels
Channel positions : Front: L C R, Side: L R, LFE
Sampling rate : 48.0 KHz
Frame rate : 31.250 fps (1536 spf)
Compression mode : Lossy
Stream size : 118 MiB (14%)
Alignment : Split accross interleaves
Interleave, duration : 42 ms (1.00 video frame)
Interleave, preload duration : 500 ms
Audio #2
ID : 2
Format : AC-3
Format/Info : Audio Coding 3
Mode extension : CM (complete main)
Format settings, Endianness : Big
Codec ID : 2000
Duration : 42mn 53s
Bit rate mode : Constant
Bit rate : 384 Kbps
Channel(s) : 6 channels
Channel positions : Front: L C R, Side: L R, LFE
Sampling rate : 48.0 KHz
Frame rate : 31.250 fps (1536 spf)
Compression mode : Lossy
Stream size : 118 MiB (14%)
Alignment : Split accross interleaves
Interleave, duration : 42 ms (1.00 video frame)
Interleave, preload duration : 500 ms
-
Вне форума [Профиль] [ЛС]
Показать сообщения:    
Ответить на тему

Текущее время: Сегодня 03:14

Часовой пояс: GMT + 3



Вы не можете начинать темы
Вы не можете отвечать на сообщения
Вы не можете редактировать свои сообщения
Вы не можете удалять свои сообщения
Вы не можете голосовать в опросах
Вы не можете прикреплять файлы к сообщениям
Вы не можете скачивать файлы