Сегодня идет свободное скачивание без начисления Download

Версаль / Versailles / Сезон: 1 / Серии: 1-8 из 10 (Дениэл Роби, Кристоф Шреве) [2015, Драма, исторический, HDRip] MVO (Первый канал)

Ответить на тему
 
Автор
Сообщение

Omen ®

Стаж: 5 лет 6 месяцев

Сообщений: 186946

Торрент-статистика

Пост 29-Мар-2016 00:00

[Цитировать]

-Версаль | Versailles-- • Год выпуска: 2015
• Страна: Франция, Канада
• Жанр: Драма, биография, исторический
• Продолжительность: ~ 00:55:00-• Перевод: Профессиональный (многоголосый закадровый) | Первый канал-• Режиссёр: Дэниэл Роби, Кристоф Шреве, Жалиль Леспер-• В ролях: Джордж Благден, Александр Влахос, Тиг Раньян, Стюарт Боуман, Ивэн Уильямс, Анна Брюстер, Лиззи Броше, Анатоль Таубман, Стив Кьюмин, Элиза Ласовски, Джилли Гилкрист, Джо Шеридан, Амира Казар, Алексис Михалик, Пип Торренс, Питер Хадсон, Джеффри Бейтман, Доминик Блан, Руперт Ванситтарт-• Описание: Людовик XIV взошел на престол, когда ему было 4 года. Многие годы Францией управлял совет министров, возглавляемый его матерью. Теперь она мертва и у знати с каждым днем все больше власти. Чтобы выжить, Людовику необходимо с чистого листа выстроить новую власть, вдалеке от Парижа. В деревушке под названием... Версаль.
- --• Качество: HDRip
• Формат: AVI
• Видео: XviD , 720x400 (16:9), 25.000 fps, ~1700 kbps
• Аудио #1: AC3 | 48 KHz | 2.0 (Front: L R) | ~192 kbps [RUS]
• Субтитры: отсутствуют
• Релиз: рип qqss44 || Запись звука: Justin || Синхронизация звука: messafan ||
-

✘ MediaInfo ✘

Код:
Общее
Формат                                   : AVI
Формат/Информация                        : Audio Video Interleave
Размер файла                             : 715 Мбайт
Продолжительность                        : 50 м.
Общий поток                              : 1974 Кбит/сек
Программа кодирования                    : VirtualDubMod 1.5.10.3 | www.virtualdub-fr.org || (build 2550/release)
Библиотека кодирования                   : VirtualDubMod build 2550/release
Видео
Идентификатор                            : 0
Формат                                   : MPEG-4 Visual
Профиль формата                          : Advanced Simple@L5
Параметр BVOP формата                    : 2
Параметр QPel формата                    : Нет
Параметр GMC формата                     : Без точки перехода
Параметр матрицы формата                 : Default (MPEG)
Идентификатор кодека                     : XVID
Идентификатор кодека/Подсказка           : XviD
Продолжительность                        : 50 м.
Битрейт                                  : 1772 Кбит/сек
Ширина                                   : 720 пикселей
Высота                                   : 400 пикселей
Соотношение сторон                       : 16:9
Частота кадров                           : 25,000 кадров/сек
Цветовое пространство                    : YUV
Субдискретизация насыщенности            : 4:2:0
Битовая глубина                          : 8 бит
Тип развёртки                            : Прогрессивная
Метод сжатия                             : С потерями
Бит/(Пиксели*Кадры)                      : 0.246
Размер потока                            : 642 Мбайт (90%)
Библиотека кодирования                   : XviD 73
Аудио
Идентификатор                            : 1
Формат                                   : AC-3
Формат/Информация                        : Audio Coding 3
Расширение режима                        : CM (complete main)
Параметр Endianness формата              : Big
Идентификатор кодека                     : 2000
Продолжительность                        : 50 м.
Вид битрейта                             : Постоянный
Битрейт                                  : 192 Кбит/сек
Каналы                                   : 2 канала
Расположение каналов                     : Front: L R
Частота                                  : 48,0 КГц
Метод сжатия                             : С потерями
Размер потока                            : 69,6 Мбайт (10%)
Выравнивание                             : Разделение по промежуткам
Продолжительность промежутка             : 40  мс. (1,00 видеокадр)
Время предзагрузки промежутка            : 500  мс.

✘ Скриншоты ✘

-
Вне форума [Профиль] [ЛС]
Показать сообщения:    
Ответить на тему

Текущее время: Сегодня 04:14

Часовой пояс: GMT + 3



Вы не можете начинать темы
Вы не можете отвечать на сообщения
Вы не можете редактировать свои сообщения
Вы не можете удалять свои сообщения
Вы не можете голосовать в опросах
Вы не можете прикреплять файлы к сообщениям
Вы не можете скачивать файлы