Сегодня идет свободное скачивание без начисления Download

Конец детства / Childhood\'s End / Сезон: 1 / Серии: 1-3 из 3 (Ник Харран) [2015, фантастика, триллер, драма, BDrip 720p] 5xMVO (Jaskier, NewStudio, BaibaKo, LostFilm, IdeaFilm) + DVO (Hamsterstudio) + Original + Subs (Rus,Eng)

Ответить на тему
 
Автор
Сообщение

Omen ®

Стаж: 6 лет 1 месяц

Сообщений: 184308

Торрент-статистика

Пост 28-Мар-2016 21:03

[Цитировать]

-Конец детства / Childhood's End
-- --Год выпуска: 2015.
Страна: США.
Жанр: фантастика, триллер, драма.
Продолжительность: ~01:20:00--Перевод:
  • Профессиональный (многоголосый закадровый): Jaskier.
  • Профессиональный (многоголосый закадровый): NewStudio.
  • Профессиональный (многоголосый закадровый): BaibaKo.
  • Профессиональный (многоголосый закадровый): LostFilm.
  • Профессиональный (многоголосый закадровый): IdeaFilm
  • Любительский (двухголосый закадровый): Hamsterstudio.-Режиссёр: Ник Харран.-В ролях: Майк Фогель, Ози Икхайл, Дэйзи Беттс, Джорджина Хэйг, Чарльз Дэнс, Эшли Цукерман, Хейли Магнус, Шарлотта Никдао, Яэль Стоун, Лачлан Роланд-Кенн.-Описание:
    Экранизация популярного романа Артура Кларка о контакте с внеземной цивилизацией.
    Действие сериала начинается в 2016 году. Над большинством земных мегаполисов возникают огромные корабли. Раса могущественных пришельцев посещает Землю. Сверхправители, как их прозвали, демонстрируют подавляющее превосходство своих технологий над земными, немедленно прекратив все крупные военные конфликты.
    В качестве посредника для общения с землянами, Сверхправители выбирают не одного из политических лидеров, а рядового землянина, фермера из американской глубинки Рикки Стормгрена. Пришелец Кареллен во время встреч объясняет свою позицию: землянам предстоит пройти воспитание и постепенное обучение. На Земле начинается Золотой век. Подарок Сверхправителей Стормгрену помогает многим исцелиться от неизлечимых заболеваний. Однако не всем по душе принуждение, пусть даже мягкое и осуществляемое внешне из лучших побуждений. На Земле возникает и набирает силу сопротивление против пришельцев.-Доп. Информация:
    Релиз от
    by Plazik
    Работа со звуком: Plazik.
  • Все русские дорожки, кроме 4-ой, получены наложением чистых голосов на центр оригинала. Спасибо студиям за голоса.
  • Звуковая дорожка номер 4 получена наложением выделенных голосов на центр оригинала.--Качество: BD-rip 720p
    Контейнер: MKV-Видео: 1280x720 at 23.976 fps, x264@L4.1, crf, ~7000 kbps avg
    Аудио#1: Russian: 48 kHz/16-bit, DTS 5.1, ~1509.00 kbps avg |Многоголосый закадровый, Jaskier|
    Аудио#2: Russian: 48 kHz/16-bit, DTS 5.1, ~1509.00 kbps avg |Многоголосый закадровый, Newstudio|
    Аудио#3: Russian: 48 kHz/16-bit, DTS 5.1, ~1509.00 kbps avg |Многоголосый закадровый, BaibaKo|
    Аудио#4: Russian: 48 kHz/16-bit, DTS 5.1, ~1509.00 kbps avg |Многоголосый закадровый, LostFilm|
    Аудио#5: Russian: 48 kHz/16-bit, DTS 5.1, ~1509.00 kbps avg |Многоголосый закадровый, IdeaFilm|
    Аудио#6: Russian: 48 kHz/16-bit, DTS 5.1, ~1509.00 kbps avg |Двухголосый закадровый, Hamsterstudio|
    Аудио#7:: English: 48 kHz/16-bit, DTS 5.1, ~1509.00 kbps avg
    Субтитры: Russian (notabenoid), Russian (notabenoid - Alternative Production), English, English SDH.

Список серий

  • 01. The Overlords/СверхПравители.
  • 02. The Deceivers/Обманщики.
  • 03. The Children/Дети.

MediaInfo

Код:
General
Unique ID                                : 174025009718795145124156932174339303042 (0x82EBFF6B2A739002AAA3E3EF4162E682)
Complete name                            : Q:\!СЕРИАЛЫ!\Childhood's.End.S01.720p.BDRip.6xRus.Eng.Subs.HDCLUB\Childhood's.End.S01E01.The.Overlords.720p.BDRip.6xRus.Eng.Subs.HDCLUB.mkv
Format                                   : Matroska
Format version                           : Version 4 / Version 2
File size                                : 10.2 GiB
Duration                                 : 1h 21mn
Overall bit rate                         : 17.8 Mbps
Movie name                               : Конец детства / Childhood's End (2015) S01E01 Сверхправители / The Overlords
Encoded date                             : UTC 2016-03-23 18:08:16
Writing application                      : mkvmerge v8.9.0 ('Father Daughter') 64bit
Writing library                          : libebml v1.3.3 + libmatroska v1.4.4
Attachements                             : cover.jpg
Video
ID                                       : 1
Format                                   : AVC
Format/Info                              : Advanced Video Codec
Format profile                           : High@L4.1
Format settings, CABAC                   : Yes
Format settings, ReFrames                : 9 frames
Codec ID                                 : V_MPEG4/ISO/AVC
Duration                                 : 1h 21mn
Bit rate                                 : 6 879 Kbps
Width                                    : 1 280 pixels
Height                                   : 720 pixels
Display aspect ratio                     : 16:9
Frame rate mode                          : Constant
Frame rate                               : 23.976 fps
Color space                              : YUV
Chroma subsampling                       : 4:2:0
Bit depth                                : 8 bits
Scan type                                : Progressive
Bits/(Pixel*Frame)                       : 0.311
Stream size                              : 3.94 GiB (39%)
Title                                    : MPEG-4 AVC @ ~7200 kbps - DON
Writing library                          : x264 core 146 r0+2586 e393126 t_mod_Custom [8-bit@all X86_64]
Encoding settings                        : cabac=1 / ref=9 / deblock=1:-3:-3 / analyse=0x3:0x133 / me=umh / subme=10 / psy=1 / fade_compensate=0.00 / psy_rd=1.00:0.00 / mixed_ref=1 / me_range=24 / chroma_me=1 / trellis=2 / 8x8dct=1 / cqm=0 / deadzone=21,11 / fast_pskip=0 / chroma_qp_offset=-2 / threads=12 / lookahead_threads=3 / sliced_threads=0 / nr=0 / decimate=0 / interlaced=0 / bluray_compat=0 / constrained_intra=0 / fgo=0 / bframes=12 / b_pyramid=2 / b_adapt=2 / b_bias=0 / direct=3 / weightb=1 / open_gop=0 / weightp=2 / keyint=250 / keyint_min=23 / scenecut=40 / intra_refresh=0 / rc_lookahead=60 / rc=crf / mbtree=0 / crf=17.5000 / qcomp=0.65 / qpmin=0:0:0 / qpmax=69:69:69 / qpstep=4 / vbv_maxrate=62500 / vbv_bufsize=78125 / crf_max=0.0 / nal_hrd=none / filler=0 / ip_ratio=1.40 / pb_ratio=1.30 / aq=3:0.85 / aq-sensitivity=10.00 / aq-factor=1.00:1.00:1.00 / aq2=0 / aq3=0
Language                                 : English
Default                                  : Yes
Forced                                   : No
Color range                              : Limited
Matrix coefficients                      : BT.709
Audio #1
ID                                       : 2
Format                                   : DTS
Format/Info                              : Digital Theater Systems
Mode                                     : 16
Format settings, Endianness              : Big
Codec ID                                 : A_DTS
Duration                                 : 1h 21mn
Bit rate mode                            : Constant
Bit rate                                 : 1 509 Kbps
Channel(s)                               : 6 channels
Channel positions                        : Front: L C R, Side: L R, LFE
Sampling rate                            : 48.0 KHz
Bit depth                                : 24 bits
Compression mode                         : Lossy
Stream size                              : 884 MiB (8%)
Title                                    : DTS 5.1 @ 1509 Kbps - Многоголосый закадровый, Jaskier
Language                                 : Russian
Default                                  : Yes
Forced                                   : No
Audio #2
ID                                       : 3
Format                                   : DTS
Format/Info                              : Digital Theater Systems
Mode                                     : 16
Format settings, Endianness              : Big
Codec ID                                 : A_DTS
Duration                                 : 1h 21mn
Bit rate mode                            : Constant
Bit rate                                 : 1 509 Kbps
Channel(s)                               : 6 channels
Channel positions                        : Front: L C R, Side: L R, LFE
Sampling rate                            : 48.0 KHz
Bit depth                                : 24 bits
Compression mode                         : Lossy
Stream size                              : 884 MiB (8%)
Title                                    : DTS 5.1 @ 1509 Kbps - Многоголосый закадровый, NewStudio
Language                                 : Russian
Default                                  : No
Forced                                   : No
Audio #3
ID                                       : 4
Format                                   : DTS
Format/Info                              : Digital Theater Systems
Mode                                     : 16
Format settings, Endianness              : Big
Codec ID                                 : A_DTS
Duration                                 : 1h 21mn
Bit rate mode                            : Constant
Bit rate                                 : 1 509 Kbps
Channel(s)                               : 6 channels
Channel positions                        : Front: L C R, Side: L R, LFE
Sampling rate                            : 48.0 KHz
Bit depth                                : 24 bits
Compression mode                         : Lossy
Stream size                              : 884 MiB (8%)
Title                                    : DTS 5.1 @ 1509 Kbps - Многоголосый закадровый, BaibaKo
Language                                 : Russian
Default                                  : No
Forced                                   : No
Audio #4
ID                                       : 5
Format                                   : DTS
Format/Info                              : Digital Theater Systems
Mode                                     : 16
Format settings, Endianness              : Big
Codec ID                                 : A_DTS
Duration                                 : 1h 21mn
Bit rate mode                            : Constant
Bit rate                                 : 1 509 Kbps
Channel(s)                               : 6 channels
Channel positions                        : Front: L C R, Side: L R, LFE
Sampling rate                            : 48.0 KHz
Bit depth                                : 24 bits
Compression mode                         : Lossy
Stream size                              : 884 MiB (8%)
Title                                    : DTS 5.1 @ 1509 Kbps - Многоголосый закадровый, LostFilm
Language                                 : Russian
Default                                  : No
Forced                                   : No
Audio #5
ID                                       : 6
Format                                   : DTS
Format/Info                              : Digital Theater Systems
Mode                                     : 16
Format settings, Endianness              : Big
Codec ID                                 : A_DTS
Duration                                 : 1h 21mn
Bit rate mode                            : Constant
Bit rate                                 : 1 509 Kbps
Channel(s)                               : 6 channels
Channel positions                        : Front: L C R, Side: L R, LFE
Sampling rate                            : 48.0 KHz
Bit depth                                : 24 bits
Compression mode                         : Lossy
Stream size                              : 884 MiB (8%)
Title                                    : DTS 5.1 @ 1509 Kbps - Многоголосый закадровый, IdeaFilm
Language                                 : Russian
Default                                  : No
Forced                                   : No
Audio #6
ID                                       : 7
Format                                   : DTS
Format/Info                              : Digital Theater Systems
Mode                                     : 16
Format settings, Endianness              : Big
Codec ID                                 : A_DTS
Duration                                 : 1h 21mn
Bit rate mode                            : Constant
Bit rate                                 : 1 509 Kbps
Channel(s)                               : 6 channels
Channel positions                        : Front: L C R, Side: L R, LFE
Sampling rate                            : 48.0 KHz
Bit depth                                : 24 bits
Compression mode                         : Lossy
Stream size                              : 884 MiB (8%)
Title                                    : DTS 5.1 @ 1509 Kbps - Двухголосый закадровый, Hamsterstudio
Language                                 : English
Default                                  : No
Forced                                   : No
Audio #7
ID                                       : 8
Format                                   : DTS
Format/Info                              : Digital Theater Systems
Mode                                     : 16
Format settings, Endianness              : Big
Codec ID                                 : A_DTS
Duration                                 : 1h 21mn
Bit rate mode                            : Constant
Bit rate                                 : 1 509 Kbps
Channel(s)                               : 6 channels
Channel positions                        : Front: L C R, Side: L R, LFE
Sampling rate                            : 48.0 KHz
Bit depth                                : 24 bits
Compression mode                         : Lossy
Stream size                              : 884 MiB (8%)
Title                                    : DTS 5.1 @ 1509 Kbps
Language                                 : English
Default                                  : No
Forced                                   : No
Text #1
ID                                       : 9
Format                                   : UTF-8
Codec ID                                 : S_TEXT/UTF8
Codec ID/Info                            : UTF-8 Plain Text
Title                                    : SRT - Full
Language                                 : Russian
Default                                  : No
Forced                                   : No
Text #2
ID                                       : 10
Format                                   : UTF-8
Codec ID                                 : S_TEXT/UTF8
Codec ID/Info                            : UTF-8 Plain Text
Title                                    : SRT - Full - Alternative Production
Language                                 : Russian
Default                                  : No
Forced                                   : No
Text #3
ID                                       : 11
Format                                   : UTF-8
Codec ID                                 : S_TEXT/UTF8
Codec ID/Info                            : UTF-8 Plain Text
Title                                    : SRT - Full
Language                                 : English
Default                                  : No
Forced                                   : No
Text #4
ID                                       : 12
Format                                   : UTF-8
Codec ID                                 : S_TEXT/UTF8
Codec ID/Info                            : UTF-8 Plain Text
Title                                    : SRT - Full SDH
Language                                 : English
Default                                  : No
Forced                                   : No
Text #5
ID                                       : 13
Format                                   : PGS
Muxing mode                              : zlib
Codec ID                                 : S_HDMV/PGS
Codec ID/Info                            : Picture based subtitle format used on BDs/HD-DVDs
Title                                    : PGS - Full
Language                                 : English
Default                                  : No
Forced                                   : No
Menu
00:00:00.000                             : en:Chapter 1
00:10:37.011                             : en:Chapter 2
00:21:16.150                             : en:Chapter 3
00:27:39.366                             : en:Chapter 4
00:33:48.944                             : en:Chapter 5
00:42:50.777                             : en:Chapter 6
00:49:27.631                             : en:Chapter 7
00:55:25.322                             : en:Chapter 8
01:00:47.853                             : en:Chapter 9
01:08:36.279                             : en:Chapter 10
01:17:17.174                             : en:Chapter 11
01:21:23.504                             : en:Chapter 12
[/spoiler]

Скриншоты

Сэмпл | КиноПоиск | IMDB | Myshows | [url=tracker.php?f=189,2366&nm=Childhood%27s.End]Все раздачи сезона[/url]
Вне форума [Профиль] [ЛС]
Показать сообщения:    
Ответить на тему

Текущее время: Сегодня 02:20

Часовой пояс: GMT + 3



Вы не можете начинать темы
Вы не можете отвечать на сообщения
Вы не можете редактировать свои сообщения
Вы не можете удалять свои сообщения
Вы не можете голосовать в опросах
Вы не можете прикреплять файлы к сообщениям
Вы не можете скачивать файлы