Сегодня идет свободное скачивание без начисления Download

Во все тяжкие / Breaking Bad / Сезон: 2 / Серии: 1-13 (13) (Винс Гиллиган, Адам Бернстайн) [2009, США, драма, криминал, BDRip 1080p] MVO (LostFilm) + DVO (Кубик в Кубе) + Original + Subs (Rus, Eng)

Ответить на тему
 
Автор
Сообщение

Omen ®

Стаж: 5 лет 10 месяцев

Сообщений: 184329

Торрент-статистика

Пост 28-Мар-2016 00:00

[Цитировать]

Во все тяжкие / Breaking Bad
Год выпуска: 2009
Страна: США
Жанр: драма, криминал
Продолжительность: 13 х ~48 мин
Перевод 1: Профессиональный (многоголосый закадровый) LostFilm
Перевод 2: Профессиональный (двухголосый закадровый) Кубик в Кубе
Субтитры: Russian, English
Режиссеры: Винс Гиллиган, Адам Бернстайн, Джим МакКэй, Тришиа Брок, Бронуэн Хьюз, Тим Хантер, Брайан Кренстон, Чарльз Хейд, Терри МакДонаф, Джон Дал, Йохан Ренк, Питер Медак, Феликс Энрикез Алькала, Мишель Макларен, Фил Абрахам, Колин Бакси, Скотт Винант, Джон Шибан, Майкл Слоуйс, Райан Джонсон, Дэвид Слэйд, Питер Гулд, Джордж Мастрас, Томас Шнауз
Актеры: Брайан Крэнстон, Анна Ганн, Аарон Пол, Дин Норрис, Бетси Брандт, АрДжей Митти, Боб Оденкёрк, Джанкарло Эспозито, Джонатан Бэнкс, Стивен Майкл Квеза и др.
Описание: Знакомьтесь, Уолтер Уайт, преподаватель химии в университе. У него есть жена и сын-инвалид, жена ждет ещё одного ребенка. Уолт уже не молод и в этом возрасте часто бывают кризисы, тем более нужно кормить семью, а на зарплату преподавателя не разгуляешься, поэтому он вынужден подрабатывать на автомойке, где его же студенты над ним насмехаются. После того, как Уолту ставят диагноз - неоперабельный рак лёгких, вместе со своим бывшим учеником он решает открыть подпольную лабораторию по приготовлению наркотиков. Ему больше нечего терять, да и свояк постоянно говорит, что метамфетамин приносит огромные деньги. Кто ещё может приготовить чистейший метамфетамин, как не учитель химии?
Качество: BDRip 1080p
Формат: MKV
Видео: 1920x1080 23.976 fps MPEG-4 AVC ~11 mbps
Аудио 1: Russian: 48 kHz, DTS, 5.1, ~1509.00 kbps (LostFilm)
Аудио 2: Russian: 48 kHz, DTS, 5.1, ~1509.00 kbps (Кубик в Кубе)
Аудио 3: English: 48 kHz, DTS, 5.1, ~1509.00 kbps
Субтитры: Russian (Forced), Russian, English
Работа со звуком и субтитрами - Lostrator.

Список эпизодов

  • Семьсот тридцать семь (Seven Thirty-Seven)
  • Попандос (Grilled)
  • Укус мертвой пчелы (Bit by a Dead Bee)
  • На дне (Down)
  • Бой товара (Breakage)
  • Ку-ку (Peekaboo)
  • Синий мет на черном рынке (Negro Y Azul)
  • Надо звонить Солу (Better Call Saul)
  • 4 дня на природе (4 Days Out)
  • Всё (Over)
  • Мандала (Mandala)
  • Феникс (Phoenix)
  • АБК (ABQ)

Скриншоты

MediaInfo

General
Unique ID : 192679473889880497119573021458138746387 (0x90F4B7830B62739FA97C305449254E13)
Complete name : Breaking.Bad.s02e01.Seven.Thirty-Seven.mkv
Format : Matroska
Format version : Version 2
File size : 5.13 GiB
Duration : 47mn 15s
Overall bit rate : 15.5 Mbps
Movie name : Breaking Bad (2009) Season_02 Episode_01: Seven Thirty-Seven / Семьсот тридцать семь
Encoded date : UTC 2016-03-26 17:16:40
Writing application : mkvmerge v8.9.0 ('Father Daughter') 64bit
Writing library : libebml v1.3.3 + libmatroska v1.4.4
Video
ID : 1
Format : AVC
Format/Info : Advanced Video Codec
Format profile : High@L4.1
Format settings, CABAC : Yes
Format settings, ReFrames : 4 frames
Codec ID : V_MPEG4/ISO/AVC
Duration : 47mn 15s
Bit rate : 11.0 Mbps
Width : 1 920 pixels
Height : 1 080 pixels
Display aspect ratio : 16:9
Frame rate mode : Constant
Frame rate : 23.976 (24000/1001) fps
Color space : YUV
Chroma subsampling : 4:2:0
Bit depth : 8 bits
Scan type : Progressive
Bits/(Pixel*Frame) : 0.221
Stream size : 3.63 GiB (71%)
Writing library : x264 core 140 r2377 1ca7bb9
Encoding settings : cabac=1 / ref=4 / deblock=1:-1:-1 / analyse=0x3:0x133 / me=umh / subme=9 / psy=1 / psy_rd=1.00:0.00 / mixed_ref=1 / me_range=32 / chroma_me=1 / trellis=2 / 8x8dct=1 / cqm=0 / deadzone=21,11 / fast_pskip=0 / chroma_qp_offset=-2 / threads=2 / lookahead_threads=1 / sliced_threads=0 / slices=4 / nr=0 / decimate=1 / interlaced=0 / bluray_compat=0 / constrained_intra=0 / bframes=3 / b_pyramid=2 / b_adapt=2 / b_bias=0 / direct=3 / weightb=1 / open_gop=0 / weightp=2 / keyint=230 / keyint_min=23 / scenecut=40 / intra_refresh=0 / rc_lookahead=40 / rc=2pass / mbtree=1 / bitrate=10999 / ratetol=1.0 / qcomp=0.60 / qpmin=0 / qpmax=69 / qpstep=4 / cplxblur=20.0 / qblur=0.5 / ip_ratio=1.40 / aq=1:1.00
Default : Yes
Forced : No
Audio #1
ID : 2
Format : DTS
Format/Info : Digital Theater Systems
Mode : 16
Format settings, Endianness : Big
Codec ID : A_DTS
Duration : 47mn 15s
Bit rate mode : Constant
Bit rate : 1 509 Kbps
Channel(s) : 6 channels
Channel positions : Front: L C R, Side: L R, LFE
Sampling rate : 48.0 KHz
Frame rate : 93.750 fps (512 spf)
Bit depth : 24 bits
Compression mode : Lossy
Stream size : 510 MiB (10%)
Title : MVO [LostFilm]
Language : Russian
Default : Yes
Forced : No
Audio #2
ID : 3
Format : DTS
Format/Info : Digital Theater Systems
Mode : 16
Format settings, Endianness : Big
Codec ID : A_DTS
Duration : 47mn 15s
Bit rate mode : Constant
Bit rate : 1 509 Kbps
Channel(s) : 6 channels
Channel positions : Front: L C R, Side: L R, LFE
Sampling rate : 48.0 KHz
Frame rate : 93.750 fps (512 spf)
Bit depth : 24 bits
Compression mode : Lossy
Stream size : 510 MiB (10%)
Title : DVO [Кубик в Кубе]
Language : Russian
Default : No
Forced : No
Audio #3
ID : 4
Format : DTS
Format/Info : Digital Theater Systems
Mode : 16
Format settings, Endianness : Big
Codec ID : A_DTS
Duration : 47mn 15s
Bit rate mode : Constant
Bit rate : 1 509 Kbps
Channel(s) : 6 channels
Channel positions : Front: L C R, Side: L R, LFE
Sampling rate : 48.0 KHz
Frame rate : 93.750 fps (512 spf)
Bit depth : 24 bits
Compression mode : Lossy
Stream size : 510 MiB (10%)
Title : Original
Language : English
Default : No
Forced : No
Text #1
ID : 5
Format : UTF-8
Codec ID : S_TEXT/UTF8
Codec ID/Info : UTF-8 Plain Text
Duration : 6s 150ms
Bit rate : 120 bps
Count of elements : 1
Stream size : 93.0 Bytes (0%)
Title : forced
Language : Russian
Default : Yes
Forced : No
Text #2
ID : 6
Format : UTF-8
Codec ID : S_TEXT/UTF8
Codec ID/Info : UTF-8 Plain Text
Duration : 44mn 17s
Bit rate : 84 bps
Count of elements : 347
Stream size : 27.4 KiB (0%)
Title : full
Language : Russian
Default : No
Forced : No
Text #3
ID : 7
Format : UTF-8
Codec ID : S_TEXT/UTF8
Codec ID/Info : UTF-8 Plain Text
Duration : 44mn 18s
Bit rate : 47 bps
Count of elements : 450
Stream size : 15.3 KiB (0%)
Title : full
Language : English
Default : No
Forced : No
Menu
00:00:00.000 : :Chapter 01
00:01:35.024 : :Chapter 02
00:16:18.000 : :Chapter 03
00:26:14.060 : :Chapter 04
00:38:55.297 : :Chapter 05
00:46:30.188 : :Chapter 06
Скачать сэмпл
Вне форума [Профиль] [ЛС]
Показать сообщения:    
Ответить на тему

Текущее время: Сегодня 11:04

Часовой пояс: GMT + 3



Вы не можете начинать темы
Вы не можете отвечать на сообщения
Вы не можете редактировать свои сообщения
Вы не можете удалять свои сообщения
Вы не можете голосовать в опросах
Вы не можете прикреплять файлы к сообщениям
Вы не можете скачивать файлы