Сегодня идет свободное скачивание без начисления Download

Босх / Bosch / Сезон: 2 / Серии: 1-10 из 10 (Кевин Даулинг, Эрнест Р. Дикерсон, Алекс Закржевский) [2016, драма, детектив, WEB-DLRip] DVO (HamsterStudio)

Ответить на тему
 
Автор
Сообщение

Omen ®

Стаж: 5 лет 6 месяцев

Сообщений: 186946

Торрент-статистика

Пост 27-Мар-2016 15:00

[Цитировать]

Босх / Bosch
Год выпуска: 2016
Страна: США
Жанр: драма, детектив
Продолжительность: ~ 00:45:00
Перевод: Любительский (двухголосый закадровый) | HamsterStudio
Режиссёр: Кевин Даулинг, Эрнест Р. Дикерсон, Алекс Закржевский
В ролях: Титус Уэлливер, Джэми Гектор, Эми Акино, Эми Прайс-Фрэнсис, Энни Вершинг, Скотт Уилсон, Лэнс Реддик, Алан Розенберг, Валери Крус, Абрахам Бенруби
Описание: Гарри Босх – детектив от Бога. Человек, который упрятал не одного мерзавца за решётку. До службы в полиции ему пришлось повоевать во Вьетнаме, поэтому он прекрасно знает, что такое одержимость. Сейчас Босх работает в местном отделении полиции Лос-Анджелеса. Свою работу Гарри очень любит и старается выполнять добросовестно. Окружение детектива прекрасно знает, что за чтобы Босх не взялся, он обязательно доведёт это дело до конца и преступник получит сполна. Гарри не знает радостей, он не любит людей и полностью отдаётся своей работой, в перерывах предпочитает слушать джаз.
И вот очередное дело подкидывает Босху головоломки. На этот раз ему придётся расследовать убийство одного популярного продюсера Голливуда. По мере расследования Гарри узнаёт, что продюсер проворачивал незаконные схемы с деньгами.

[url=tracker.php?f=189,2366&nm=bosch]Ссылка на предыдущие и альтернативные раздачи[/url]

Качество: WEB-DLRip
Формат: AVI
Видео: 720x400 (1.80:1), 23.976 fps, XviD build 50 ~1430 kbps avg, 0.21 bit/pixel
Аудио: 48 kHz, MPEG Layer 3, 2 ch, ~128.00 kbps avg
Субтитры: отсутствуют

Релиз


Озвучка: Вячеслав Айсберг и Анастасия Снегирева
Перевод: Мария Петрова

MediaInfo

Общее
Полное имя : D:\TORRENT\Bosch\Bosch.s02e01.WEB-DLRip.HamsterStudio.Org.avi
Формат : AVI
Формат/Информация : Audio Video Interleave
Размер файла : 501 Мбайт
Продолжительность : 44 м.
Общий поток : 1567 Кбит/сек
Программа кодирования : VirtualDubModRus 1.5.10.2 (build 2540/release)
Библиотека кодирования : VirtualDubMod build 2540/release
Видео
Идентификатор : 0
Формат : MPEG-4 Visual
Профиль формата : Advanced Simple@L5
Параметр BVOP формата : 1
Параметр QPel формата : Нет
Параметр GMC формата : Без точки перехода
Параметр матрицы формата : Default (H.263)
Идентификатор кодека : XVID
Идентификатор кодека/Подсказка : XviD
Продолжительность : 44 м.
Битрейт : 1430 Кбит/сек
Ширина : 720 пикселей
Высота : 400 пикселей
Соотношение сторон : 16:9
Частота кадров : 23,976 кадра/сек
Цветовое пространство : YUV
Субдискретизация насыщенности : 4:2:0
Битовая глубина : 8 бит
Тип развёртки : Прогрессивная
Метод сжатия : С потерями
Бит/(Пиксели*Кадры) : 0.207
Размер потока : 457 Мбайт (91%)
Библиотека кодирования : XviD 1.2.1 (UTC 2008-12-04)
Аудио
Идентификатор : 1
Формат : MPEG Audio
Версия формата : Version 1
Профиль формата : Layer 3
Режим : Joint stereo
Расширение режима : MS Stereo
Идентификатор кодека : 55
Идентификатор кодека/Подсказка : MP3
Продолжительность : 44 м.
Вид битрейта : Постоянный
Битрейт : 128 Кбит/сек
Каналы : 2 канала
Частота : 48,0 КГц
Метод сжатия : С потерями
Размер потока : 40,9 Мбайт (8%)
Выравнивание : Соединение по промежуткам
Продолжительность промежутка : 42 мс. (1,00 видеокадр)
Время предзагрузки промежутка : 504 мс.

Скриншоты

Внимание! Раздача ведётся путём добавления новых серий

Внимание! Раздача ведётся путём добавления новых серий; при каждом добавлении создаётся новый торрент. Чтобы начать докачку новой серии, пользователям необходимо сделать следующее:
(1) остановить скачивание,
(2) удалить старый торрент у себя из клиента (старые серии удалять не надо),
(3) скачать новый торрент и запустить его у себя в клиенте вместо старого, при этом указать клиенту путь в старую папку куда и должно происходить скачивание новых серий.
Ваш клиент при этом должен произвести хеширование (проверку) старой папки (если не производит сам - помогите ему сделать это), и будет докачивать только те серии которых у вас ещё нет. Старые серии при этом не удаляются, а продолжают раздаваться!
Eсли вы уже удалили старые серии, то предотвратить повторную закачку старых серий можно, отжав галочку в соответствующих местах при запуске нового торрента. По возможности, желательно не удалять старые серии как можно дольше, чтобы релизёр не столько продолжал раздавать старые серии, а смог сконцентрироваться на новых.
Вне форума [Профиль] [ЛС]
Показать сообщения:    
Ответить на тему

Текущее время: Сегодня 07:26

Часовой пояс: GMT + 3



Вы не можете начинать темы
Вы не можете отвечать на сообщения
Вы не можете редактировать свои сообщения
Вы не можете удалять свои сообщения
Вы не можете голосовать в опросах
Вы не можете прикреплять файлы к сообщениям
Вы не можете скачивать файлы