Сегодня идет свободное скачивание без начисления Download

Вся жизнь впереди / La vie devant elles / Сезон: 1 / Серии: 1-4 из 6 (Габриэль Агьон / Gabriel Aghion) [Франция, драма, DVB] Original (Fre) + Rus Sub (Eclair Media)

Ответить на тему
 
Автор
Сообщение

Omen ®

Стаж: 5 лет 8 месяцев

Сообщений: 184433

Торрент-статистика

Пост 26-Мар-2016 18:03

[Цитировать]

Вся жизнь впереди
La vie devant elles- Год выпуска: 2014
Страна: Франция
Жанр: драма
Продолжительность: 00:46:00Перевод: Субтитры (русский перевод М.Лабори, И.Безлюдной, Éclair Media)
Режиссёр: Габриэль Агьон / Gabriel Aghion
В ролях: Стефан Кайар / Stéphane Caillard (Alma), Альма Ходоровски / Alma Jodorowsky (Solana), Лилли-Флёр Пуанто / Lilly-Fleur Pointeaux (Caroline), Сабин Одепен / Sabine Haudepin (Micheline), Клер Небу / Claire Nebout (Valerie), Жером Анже / Jérôme Anger (Vilson), Владимир Консиньи / Vladimir Consigny (Rodolphe), Бруно Тодескини / Bruno Todeschini (Maitre Duparcq), Робер Планьоль / Robert Plagnol (L'Ingenieur), Эрик Наггар / Éric Naggar (Le President du Tribunal), Софи Брусталь / Sophie Broustal (Marion), Жером Киршер / Jérôme Kircher (Paul)
Описание: 1970 год. Фильм о судьбе трех 17-летних девушек, чья беззаботная юность была перечеркнута гибелью отцов во время взрыва газа на угольной шахте в горной области Нор-Па-де-Кале. Им придется бороться с предрассудками и осуждением окружающих за честь своих отцов.
Доп. информация: Hot Bird (13.0°E) TV5MONDE Europe DVB-S
Награды: приз жюри иностранной прессы за лучший телесериал Festival Séries Mania 2015 + 2 номинации (лучшие актрисы - Claire Nebout, Lilly-Fleur Pointeaux, Stéphane Caillard; лучший актер - Bruno Todeschini).

Качество: DVB
Формат: MKV
Видео: MPEG Video 2, 720x576@1024x576 (16:9), 25 fps, ~2954 kbps avg, 0.285 bit/pixel
Аудио: MPEG Audio 2, 2 ch, 48 kHz, 192 kbps - французский
Субтитры: русские, немецкие, нидерландские, румынские - prerendered (IDX+SUB); английские, французские - softsub (SRT)

Список серий

1-4 без названия

MediaInfo

GeneralUnique ID : 197298682555369056358665863857629876950 (0x946E58151CD78816817DBBBDE0A4D2D6)Complete name : [apreder]La_vie_devant_elles_s.1_ep.01(2014)DVB.mkvFormat : MatroskaFormat version : Version 2File size : 1.05 GiBDuration : 46mn 58sOverall bit rate mode : VariableOverall bit rate : 3 210 KbpsMovie name : La vie devant ellesReleased date : 2015-04-28Encoded date : UTC 2016-03-19 07:31:17Writing application : mkvmerge v8.9.0 ('Father Daughter') 64bitWriting library : libebml v1.3.3 + libmatroska v1.4.4Cover : YesAttachments : cover.jpg / cover_small.jpgACTOR : Stephane Caillard, Alma Jodorowsky, Lilly-Fleur PointeauxDIRECTOR : Gabriel AghionGENRE : DramaIMDB : tt3848756KEYWORDS : rutracker.orgLAW_RATING : 16+SUMMARY : s.1, ep.01
VideoID : 1Format : MPEG VideoFormat version : Version 2Format profile : Main@MainFormat settings, BVOP : YesFormat settings, Matrix : CustomFormat settings, GOP : M=4, N=12Format settings, picture structure : FrameCodec ID : V_MPEG2Codec ID/Info : MPEG 1 or 2 VideoDuration : 46mn 58sBit rate mode : VariableBit rate : 2 954 KbpsWidth : 720 pixelsHeight : 576 pixelsDisplay aspect ratio : 16:9Frame rate mode : ConstantFrame rate : 25.000 fpsStandard : PALColor space : YUVChroma subsampling : 4:2:0Bit depth : 8 bitsScan type : InterlacedScan order : Top Field FirstCompression mode : LossyBits/(Pixel*Frame) : 0.285Time code of first frame : 00:00:00:00Time code source : Group of pictures headerGOP, Open/Closed : OpenGOP, Open/Closed of first frame : ClosedStream size : 993 MiB (92%)Default : YesForced : No
AudioID : 2Format : MPEG AudioFormat version : Version 1Format profile : Layer 2Mode : Joint stereoMode extension : Intensity Stereo + MS StereoCodec ID : A_MPEG/L2Codec ID/Hint : MP2Duration : 46mn 58sBit rate mode : ConstantBit rate : 192 KbpsChannel(s) : 2 channelsSampling rate : 48.0 KHzCompression mode : LossyStream size : 64.5 MiB (6%)Language : FrenchDefault : YesForced : No
Text #1ID : 3Format : VobSubCodec ID : S_VOBSUBCodec ID/Info : Picture based subtitle format used on DVDsLanguage : RussianDefault : NoForced : No
Text #2ID : 4Format : UTF-8Codec ID : S_TEXT/UTF8Codec ID/Info : UTF-8 Plain TextLanguage : EnglishDefault : NoForced : No
Text #3ID : 5Format : UTF-8Codec ID : S_TEXT/UTF8Codec ID/Info : UTF-8 Plain TextLanguage : FrenchDefault : NoForced : No
Text #4ID : 6Format : VobSubCodec ID : S_VOBSUBCodec ID/Info : Picture based subtitle format used on DVDsLanguage : GermanDefault : NoForced : No
Text #5ID : 7Format : VobSubCodec ID : S_VOBSUBCodec ID/Info : Picture based subtitle format used on DVDsLanguage : DutchDefault : NoForced : No
Text #6ID : 8Format : VobSubCodec ID : S_VOBSUBCodec ID/Info : Picture based subtitle format used on DVDsLanguage : RomanianDefault : NoForced : No

Скриншоты


Резервные скриншоты


-

Внимание! Раздача ведётся путём добавления новых выпусков

Внимание! Раздача ведётся путём добавления новых выпусков; при каждом добавлении создаётся новый торрент. Чтобы начать докачку нового выпуска, пользователям необходимо сделать следующее:
(1) остановить скачивание,
(2) удалить старый торрент у себя из клиента (старые серии удалять не надо),
(3) скачать новый торрент и запустить его у себя в клиенте вместо старого, при этом указать клиенту путь в старую папку куда и должно происходить скачивание новых выпусков.
Ваш клиент при этом должен произвести хеширование (проверку) старой папки (если не производит сам - помогите ему сделать это). В результате он будет докачивать только те выпуски, которых у Вас ещё нет. Старые выпуски при этом не удаляются, а продолжают раздаваться!
Eсли Вы уже удалили старые выпуски, то предотвратить их повторную закачку можно, сняв галочки в соответствующих местах при запуске нового торрента. По возможности, желательно не удалять старые выпуски как можно дольше, чтобы релизёр не только продолжал раздавать старые выпуски, но и смог сконцентрироваться на новых.
-
Вне форума [Профиль] [ЛС]
Показать сообщения:    
Ответить на тему

Текущее время: Сегодня 22:07

Часовой пояс: GMT + 3



Вы не можете начинать темы
Вы не можете отвечать на сообщения
Вы не можете редактировать свои сообщения
Вы не можете удалять свои сообщения
Вы не можете голосовать в опросах
Вы не можете прикреплять файлы к сообщениям
Вы не можете скачивать файлы